Скачать через торрент Игра Джералда Gerald's Game Фильм бесплатно в хорошем качестве torrent

Скачивайте на UnionPeer.org фильмы через торрент без регистрации. Новинки кино в хорошем качестве через торрент. На UnionPeer.org можно скачать через торрент фильмы 2014 и 2015 годов. Самые новые фильмы.

Скачать торрент Игра Джералда Gerald's Game бесплатно через .torrent фильм мультфильм сериал

Статистика раздачи
Размер:  4.96 GB   |    Зарегистрирован:  7 дней   |    .torrent скачан:  130 раз   |   
Раздают:  1  
   
загрузка...
 
Автор Сообщение

Galfimbul

avatar Galfimbul


Название: Игра Джералда
Оригинальное название: Gerald's Game
Год выпуска: 2017
Жанр: ужасы, триллер, драма
Режиссер: Майк Флэнеган
В ролях: Карла Гуджино (Jessie Burlingame), Брюс Гринвуд (Gerald Burlingame), Кьяра Аурелия (Young Jessie), Карел Стрёйкен (Moonlight Man), Генри Томас (Tom), Кейт Сигел (Sally), Adalyn Jones (Maddie), Bryce Harper (James), Гвендолин Муламба (Judge McGarnagle), Джеймс Флэнеган (Court Clerk), Дори Лампкин (Teenage Girl), Натали Роерс (Reporter #1)
О фильме: После того, как ее муж падает с сердечным приступом в разгаре интимной игры, молодая женщина остается прикованной к кровати. Но ее одиночество будет недолгим. Все страхи, которые она когда-либо испытывала в жизни, вернутся в одночасье в уединенный дом, мгновенно превратившийся в зловещую камеру пыток.
Страна: США
Студия: Netflix, Intrepid Pictures
Продолжительность: 01:43:25
Перевод: Профессиональный (многоголосый, закадровый) Jaskier
Файл
Качество: WEBRip 1080p
Формат: Matroska
Видео: 1920x804 at 23.976 fps, MPEG-4 AVC, ~6100 kbps avg
Аудио#1: Russian: 48 kHz, AC3, 3/2 (L,C,R,l,r) + LFE ch, ~384 kbps avg |Многоголосый закадровый, Jaskier|
Аудио#2: English: 48 kHz, AC3, 3/2 (L,C,R,l,r) + LFE ch, ~384 kbps avg
Субтитры: Russian, English, German, Spanish, French, Italian
***Примечание: Без рекламы.
***Исходник: Geralds.Game.2017.1080p.NF.WEBRip.DD5.1.x264-NTb
***Релиз: Atla22.
[li]Фильм является экранизацией одноименного романа Стивена Кинга 1992 г.[/li]
Общее
Уникальный идентификатор : 319687034573594005472232002181695314075 (0xF0817BB7B2C66D07F7A622709E90989B)
Полное имя : Игра Джеральда. 2017. MVO (WEB-DL 1080p).mkv
Формат : Matroska
Версия формата : Version 4 / Version 2
Размер файла : 4,96 Гбайт
Продолжительность : 1 ч. 43 м.
Общий поток : 6869 Кбит/сек
Название фильма : Gerald's Game
Дата кодирования : UTC 2018-11-06 17:20:27
Программа кодирования : mkvmerge v25.0.0 ('Prog Noir') 64-bit
Библиотека кодирования : libebml v1.3.6 + libmatroska v1.4.9

Видео
Идентификатор : 1
Формат : AVC
Формат/Информация : Advanced Video Codec
Профиль формата : High@L4.1
Параметр CABAC формата : Да
Параметр ReFrames формата : 5 кадров
Идентификатор кодека : V_MPEG4/ISO/AVC
Продолжительность : 1 ч. 43 м.
Битрейт : 5964 Кбит/сек
Ширина : 1920 пикселей
Высота : 804 пикселя
Соотношение сторон : 2,40:1
Режим частоты кадров : Постоянный
Частота кадров : 23,976 кадра/сек
Цветовое пространство : YUV
Субдискретизация насыщенности : 4:2:0
Битовая глубина : 8 бит
Тип развёртки : Прогрессивная
Бит/(Пиксели*Кадры) : 0.161
Размер потока : 4,31 Гбайт (87%)
Библиотека кодирования : x264 core 144 r2525 40bb568
Настройки программы : cabac=1 / ref=5 / deblock=1:-3:-3 / analyse=0x3:0x133 / me=umh / subme=10 / psy=1 / psy_rd=1.00:0.00 / mixed_ref=1 / me_range=48 / chroma_me=1 / trellis=2 / 8x8dct=1 / cqm=0 / deadzone=21,11 / fast_pskip=0 / chroma_qp_offset=-2 / threads=24 / lookahead_threads=4 / sliced_threads=0 / nr=0 / decimate=0 / interlaced=0 / bluray_compat=0 / constrained_intra=0 / bframes=8 / b_pyramid=2 / b_adapt=2 / b_bias=0 / direct=3 / weightb=1 / open_gop=0 / weightp=2 / keyint=250 / keyint_min=23 / scenecut=40 / intra_refresh=0 / rc=crf / mbtree=0 / crf=18.0 / qcomp=0.60 / qpmin=0 / qpmax=69 / qpstep=4 / ip_ratio=1.30 / pb_ratio=1.20 / aq=3:0.80
Язык : English
Default : Да
Forced : Нет

Аудио #1
Идентификатор : 2
Формат : AC-3
Формат/Информация : Audio Coding 3
Расширение режима : CM (complete main)
Параметр Endianness формата : Big
Идентификатор кодека : A_AC3
Продолжительность : 1 ч. 43 м.
Вид битрейта : Постоянный
Битрейт : 384 Кбит/сек
Каналы : 6 каналов
Расположение каналов : Front: L C R, Side: L R, LFE
Частота : 48,0 КГц
Битовая глубина : 16 бит
Метод сжатия : С потерями
Размер потока : 284 Мбайт (6%)
Язык : Russian
Default : Да
Forced : Нет

Аудио #2
Идентификатор : 3
Формат : AC-3
Формат/Информация : Audio Coding 3
Расширение режима : CM (complete main)
Параметр Endianness формата : Big
Идентификатор кодека : A_AC3
Продолжительность : 1 ч. 43 м.
Вид битрейта : Постоянный
Битрейт : 384 Кбит/сек
Каналы : 6 каналов
Расположение каналов : Front: L C R, Side: L R, LFE
Частота : 48,0 КГц
Битовая глубина : 16 бит
Метод сжатия : С потерями
Размер потока : 284 Мбайт (6%)
Язык : English
Default : Нет
Forced : Нет

Текст #1
Идентификатор : 4
Формат : UTF-8
Идентификатор кодека : S_TEXT/UTF8
Идентификатор кодека/Информация : UTF-8 Plain Text
Язык : Russian
Default : Нет
Forced : Нет

Текст #2
Идентификатор : 5
Формат : UTF-8
Идентификатор кодека : S_TEXT/UTF8
Идентификатор кодека/Информация : UTF-8 Plain Text
Язык : English
Default : Нет
Forced : Нет

Текст #3
Идентификатор : 6
Формат : UTF-8
Идентификатор кодека : S_TEXT/UTF8
Идентификатор кодека/Информация : UTF-8 Plain Text
Язык : German
Default : Нет
Forced : Нет

Текст #4
Идентификатор : 7
Формат : UTF-8
Идентификатор кодека : S_TEXT/UTF8
Идентификатор кодека/Информация : UTF-8 Plain Text
Язык : Spanish
Default : Нет
Forced : Нет

Текст #5
Идентификатор : 8
Формат : UTF-8
Идентификатор кодека : S_TEXT/UTF8
Идентификатор кодека/Информация : UTF-8 Plain Text
Язык : French
Default : Нет
Forced : Нет

Текст #6
Идентификатор : 9
Формат : UTF-8
Идентификатор кодека : S_TEXT/UTF8
Идентификатор кодека/Информация : UTF-8 Plain Text
Язык : Italian
Default : Нет
Forced : Нет
Источник http://BlaTor.org

Трекер:  [ 08-Ноя-2018 13:30 ]

  

Скачать .torrent

Размер .torrent файла 13 KB


Размер: 4.96 GB
Хэш (hash) релиза: 1525a6a486ab517be30e7b7c17d974172c59b98d
Подписка на обновления:

Торренты, похожие на Игра Джералда Gerald's Game скачать торрент

Форум Название Автор Размер S L Добавлен
Зарубежные фильмы 2016-2018 (Новинки зарубежного кино) ·%· Игра Джералда / Gerald's Game (2017) WEBRip | Jaskier Galfimbul 22239297542.07 GB 0 0 1542132130

21:02

13-Ноя-18

Еще никто не оставлял запись к записи скачать торрент Игра Джералда Gerald's Game . Будь первым!

!Обратная связь