Скачать через торрент Клуб миллиардеров Billionaire Boys Club Фильм бесплатно в хорошем качестве torrent

Скачивайте на UnionPeer.org фильмы через торрент без регистрации. Новинки кино в хорошем качестве через торрент. На UnionPeer.org можно скачать через торрент фильмы 2014 и 2015 годов. Самые новые фильмы.

Скачать торрент Клуб миллиардеров Billionaire Boys Club бесплатно через .torrent фильм мультфильм сериал

Статистика раздачи
Размер:  7.07 GB   |    Зарегистрирован:  8 дней   |    .torrent скачан:  92 раза   |   
Раздают:  1  
   
загрузка...
 
Автор Сообщение

Galfimbul

avatar Galfimbul


Клуб миллиардеров / Billionaire Boys Club
«Скажи им правду, если хочешь обмануть»


Год выпуска: 2018
Страна: США
Производство: Armory Films, Oriah Entertainment, Tibet Born Pictures Limited, Vantage Entertainment
Жанр: Триллер, драма, биография

Режиссёр: Джеймс Кокс
В ролях: Тэрон Эджертон, Эмма Робертс, Сьюки Уотерхаус, Кевин Спейси, Кэри Элвис, Билли Лурд, Энсел Элгорт, Джереми Ирвин, Боким Вудбайн, Розанна Аркетт

Перевод: Дублированный | iTunes
Субтитры: Русские (полные), Английские (SDH)
Реклама: Отсутствует

Описание: Лос-Анджелес начала 1980-х. Компания молодых людей решает провернуть аферу, благоприятный исход которой сулит огромные деньги. Схема обогащения оказывается жизнеспособной и вместе с тем — смертельной.



Качество: BDRip 1080p | BDRemux | Billionaire Boys Club 2018 REMUX BluRay 1080p AVC DTS-HD MA5 1-iFT
Продолжительность: 01:43:52

Формат: MKV
Видео кодек: MPEG-4 AVC
Аудио кодек: AC3
Видео: 1920x804 (2.40:1), 25,000 fps, x264 ~7 865 kbps avg, 0.204 bit/pixel
Аудио #1: 48 kHz, AC3 Dolby Digital, 3/2 (L,C,R,l,r) + LFE ch, ~384.00 kbps avg | RUS (iTunes)
Аудио #2: 48 kHz, DTS Digital Theater System, 3/2 (L,C,R,l,r) + LFE ch, ~1509.00 kbps avg | ENG

Дата премьеры (мир): 17 июля 2018
Дата премьеры (РФ): 19 июля 2018, «Каскад фильм»
Цифровой релиз: 20 августа 2018, «НД Плэй»
Общее
Уникальный идентификатор : 248051665181730145514791438156487041022 (0xBA9D0352307E1191AF0A4B43F4819FFE)
Полное имя : F:SourceBillionaire.Boys.2018.x264.BDRip.(1080p).OlLanDGroup.mkv
Формат : Matroska
Версия формата : Version 4 / Version 2
Размер файла : 7,07 Гбайт
Продолжительность : 1 ч. 43 м.
Общий поток : 9751 Кбит/сек
Название фильма : Клуб миллиардеров.2018.Rip by: ollan
Дата кодирования : UTC 2018-11-05 16:16:34
Программа кодирования : mkvmerge v6.5.0 ('Isn't she lovely') built on Oct 20 2013 12:50:05
Библиотека кодирования : libebml v1.3.0 + libmatroska v1.4.1
Обложка : Yes
Attachments : Cover - Billionaire.Boys.Club.png

Видео
Идентификатор : 1
Формат : AVC
Формат/Информация : Advanced Video Codec
Профиль формата : High@L4.1
Параметр CABAC формата : Да
Параметр ReFrames формата : 5 кадров
Идентификатор кодека : V_MPEG4/ISO/AVC
Продолжительность : 1 ч. 43 м.
Битрейт : 7865 Кбит/сек
Ширина : 1920 пикселей
Высота : 804 пикселя
Соотношение сторон : 2,40:1
Режим частоты кадров : Постоянный
Частота кадров : 25,000 кадров/сек
Цветовое пространство : YUV
Субдискретизация насыщенности : 4:2:0
Битовая глубина : 8 бит
Тип развёртки : Прогрессивная
Бит/(Пиксели*Кадры) : 0.204
Размер потока : 5,56 Гбайт (79%)
Библиотека кодирования : x264 core 146 r2538 121396c
Настройки программы : cabac=1 / ref=5 / deblock=1:-3:-3 / analyse=0x3:0x133 / me=umh / subme=11 / psy=1 / psy_rd=0.95:0.15 / mixed_ref=1 / me_range=64 / chroma_me=1 / trellis=2 / 8x8dct=1 / cqm=0 / deadzone=21,11 / fast_pskip=0 / chroma_qp_offset=-3 / threads=12 / lookahead_threads=3 / sliced_threads=0 / nr=0 / decimate=0 / interlaced=0 / bluray_compat=0 / constrained_intra=0 / bframes=10 / b_pyramid=2 / b_adapt=2 / b_bias=0 / direct=3 / weightb=1 / open_gop=0 / weightp=2 / keyint=250 / keyint_min=25 / scenecut=40 / intra_refresh=0 / rc_lookahead=40 / rc=2pass / mbtree=0 / bitrate=7865 / ratetol=1.0 / qcomp=0.60 / qpmin=0 / qpmax=69 / qpstep=4 / cplxblur=20.0 / qblur=0.5 / vbv_maxrate=50000 / vbv_bufsize=62500 / nal_hrd=none / filler=0 / ip_ratio=1.40 / pb_ratio=1.30 / aq=1:1.00
Язык : English
Default : Да
Forced : Нет

Аудио #1
Идентификатор : 2
Формат : AC-3
Формат/Информация : Audio Coding 3
Расширение режима : CM (complete main)
Параметр Endianness формата : Big
Идентификатор кодека : A_AC3
Продолжительность : 1 ч. 43 м.
Вид битрейта : Постоянный
Битрейт : 384 Кбит/сек
Каналы : 6 каналов
Расположение каналов : Front: L C R, Side: L R, LFE
Частота : 48,0 КГц
Частота кадров : 31,250 кадров/сек (1536 spf)
Битовая глубина : 16 бит
Метод сжатия : С потерями
Размер потока : 285 Мбайт (4%)
Заголовок : iTunes Russia
Язык : Russian
Default : Да
Forced : Нет

Аудио #2
Идентификатор : 3
Формат : DTS
Формат/Информация : Digital Theater Systems
Режим : 16
Параметр Endianness формата : Big
Идентификатор кодека : A_DTS
Продолжительность : 1 ч. 43 м.
Вид битрейта : Постоянный
Битрейт : 1509 Кбит/сек
Каналы : 6 каналов
Расположение каналов : Front: L C R, Side: L R, LFE
Частота : 48,0 КГц
Частота кадров : 93,750 кадра/сек (512 spf)
Битовая глубина : 24 бит
Метод сжатия : С потерями
Размер потока : 1,09 Гбайт (15%)
Язык : English
Default : Нет
Forced : Нет

Текст #1
Идентификатор : 4
Формат : UTF-8
Идентификатор кодека : S_TEXT/UTF8
Идентификатор кодека/Информация : UTF-8 Plain Text
Заголовок : Full
Язык : Russian
Default : Нет
Forced : Нет

Текст #2
Идентификатор : 5
Формат : UTF-8
Идентификатор кодека : S_TEXT/UTF8
Идентификатор кодека/Информация : UTF-8 Plain Text
Заголовок : SDH
Язык : English
Default : Нет
Forced : Нет

Меню
00:00:00.000 : en:Chapter 01
00:04:51.078 : en:Chapter 02
00:13:48.759 : en:Chapter 03
00:23:02.399 : en:Chapter 04
00:28:31.797 : en:Chapter 05
00:34:13.960 : en:Chapter 06
00:42:05.760 : en:Chapter 07
00:49:09.679 : en:Chapter 08
00:55:00.000 : en:Chapter 09
01:02:40.320 : en:Chapter 10
01:10:45.559 : en:Chapter 11
01:17:18.719 : en:Chapter 12
01:23:53.760 : en:Chapter 13
01:33:08.077 : en:Chapter 14
Источник http://BlaTor.org

Трекер:  [ 08-Ноя-2018 04:10 ]

  

Скачать .torrent

Размер .torrent файла 36 KB


Размер: 7.07 GB
Хэш (hash) релиза: c274a5fdd18fad7ca0e34f524d912640d830dc6a
Подписка на обновления:

Торренты, похожие на Клуб миллиардеров Billionaire Boys Club скачать торрент

Форум Название Автор Размер S L Добавлен
Зарубежные фильмы 2016-2018 (Новинки зарубежного кино) ·%· Клуб миллиардеров / Billionaire Boys Club (2018) BDRip 1080p | D, Р Galfimbul 93843776838.74 GB 0 0 1536152411

16:00

5-Сен-18

Зарубежные фильмы 2016-2018 (Новинки зарубежного кино) ·%· Клуб миллиардеров / Billionaire Boys Club (2018) BDRip-AVC от HELLYWOOD | iTunes Galfimbul 22889859132.13 GB 0 0 1536081010

20:10

4-Сен-18

Зарубежные фильмы 2016-2018 (Новинки зарубежного кино) ·%· Клуб миллиардеров / Billionaire Boys Club (2018) BDRip от ExKinoRay | iTunes Galfimbul 15177545161.41 GB 0 0 1535952020

08:20

3-Сен-18

Зарубежные фильмы 2016-2018 (Новинки зарубежного кино) ·%· Клуб миллиардеров / Billionaire Boys Club (2018) BDRip 720p от HELLYWOOD | iTunes Galfimbul 15119821901.41 GB 0 0 1535784609

09:50

1-Сен-18

Зарубежные фильмы 2016-2018 (Новинки зарубежного кино) ·%· Клуб миллиардеров / Billionaire Boys Club (2018) BDRip 720p от HELLYWOOD | iTunes Galfimbul 44797021234.17 GB 0 0 1535686208

06:30

31-Авг-18

Зарубежные фильмы 2016-2018 (Новинки зарубежного кино) ·%· Клуб миллиардеров / Billionaire Boys Club (2018) BDRip-AVC от OlLanDGroup | iTunes Galfimbul 20997209421.96 GB 0 0 1535599848

06:30

30-Авг-18

Зарубежные фильмы 2016-2018 (Новинки зарубежного кино) ·%· Клуб миллиардеров / Billionaire Boys Club (2018) WEB-DLRip от MegaPeer | iTunes Galfimbul 782156170746 MB 0 0 1534878769

22:12

21-Авг-18

Зарубежные фильмы 2016-2018 (Новинки зарубежного кино) ·%· Клуб миллиардеров / Billionaire Boys Club (2018) WEB-DLRip-AVC от OlLanDGroup | HDRezka Studio Galfimbul 15679922781.46 GB 0 0 1534014626

22:10

11-Авг-18

Зарубежные фильмы 2016-2018 (Новинки зарубежного кино) ·%· Клуб миллиардеров / Billionaire Boys Club (2018) WEB-DLRip от Generalfilm | КПК | P Galfimbul 429893373410 MB 0 0 1533990014

15:20

11-Авг-18

Еще никто не оставлял запись к записи скачать торрент Клуб миллиардеров Billionaire Boys Club . Будь первым!

!Обратная связь