Скачать через торрент Мег: Монстр глубины The Meg Фильм бесплатно в хорошем качестве torrent

Скачивайте на UnionPeer.org фильмы через торрент без регистрации. Новинки кино в хорошем качестве через торрент. На UnionPeer.org можно скачать через торрент фильмы 2014 и 2015 годов. Самые новые фильмы.

Скачать торрент Мег: Монстр глубины The Meg бесплатно через .torrent фильм мультфильм сериал

Статистика раздачи
Размер:  5.58 GB   |    Зарегистрирован:  11 дней   |    .torrent скачан:  140 раз   |   
Раздают:  1  
   
загрузка...
 
Автор Сообщение

Galfimbul

avatar Galfimbul


Мег: Монстр глубины /The Meg

Год выхода: 2018
Жанр: Ужасы, фантастика, боевик, триллер
Режиссер: Джон Тёртлтауб
В ролях: Джейсон Стэйтем, Бинбин Ли, Рэйн Уилсон, Клифф Кёртис, Уинстон Чао, Шуя Софиа Цай, Руби Роуз, Пейдж Кеннеди, Роберт Тейлор (II), Оулавюр Дарри Оулафссон, Джессика МакНэми, Маси Ока, Хунмэй Мэй, Витхая Пансрингарм, Роб Уильямс, Таванда Маниймо



О фильме: Глубоководный батискаф, осуществляющий наблюдение в рамках международной программы по изучению подводной жизни, был атакован огромным существом, которое все считали давно вымершим. Неисправный аппарат теперь лежит на дне глубочайшей впадины Тихого океана… с оказавшимся в ловушке экипажем. Их время на исходе. Китайский океанограф-новатор, несмотря на протесты его дочери Суинь, зовет спасателя-подводника Джонаса Тейлора, чтобы тот помог спасти команду и океан от невиданной угрозы — доисторической 23-метровой акулы, мегалодона. Никто и подумать не мог, что много лет назад Тейлор уже сталкивался с этим чудовищным созданием.

Страна: Китай, США
Студия: Apelles Entertainment, Di Bonaventura Pictures, Flagship Entertainment Group
Продолжительность: 01:53:13
Перевод: Дублированный | iTunes

Качество: BDRip 720p
Видео: MPEG-4 AVC, 1280x536, 5000 Kbit/s, 23.976 fps
Звук:
Аудио #01: 48 kHz, AC3, 5.1, 384 Kbps | iTunes | RUS |
Аудио #02: 48 kHz, AA3, 2.0, 160 Kbps | iTunes | UKR |
Аудио #03: 48 kHz, DTS, 5.1, 1510 Kbps | Оригинал | ENG |
Субтитры: Русские (Forced, full), украинские (Forced), английские

General
Unique ID : 219010726008376683989808464233967432137 (0xA4C3EE79273C55CD68870737D170B1C9)
Complete name : D:Video1111The.Meg.2018.BDRip.720p.selezen.mkv
Format : Matroska
Format version : Version 4
File size : 5.58 GiB
Duration : 1 h 53 min
Overall bit rate : 7 052 kb/s
Movie name : The Meg 2018 from селезень
Encoded date : UTC 2018-11-05 10:24:59
Writing application : mkvmerge v28.0.0 ('Voice In My Head') 64-bit
Writing library : libebml v1.3.6 + libmatroska v1.4.9

Video
ID : 1
Format : AVC
Format/Info : Advanced Video Codec
Format profile : High@L4.1
Format settings : CABAC / 12 Ref Frames
Format settings, CABAC : Yes
Format settings, ReFrames : 12 frames
Codec ID : V_MPEG4/ISO/AVC
Duration : 1 h 53 min
Bit rate : 5 000 kb/s
Width : 1 280 pixels
Height : 536 pixels
Display aspect ratio : 2.40:1
Frame rate mode : Constant
Frame rate : 23.976 (24000/1001) FPS
Color space : YUV
Chroma subsampling : 4:2:0
Bit depth : 8 bits
Scan type : Progressive
Bits/(Pixel*Frame) : 0.304
Stream size : 3.95 GiB (71%)
Writing library : x264 core 152 r2851kMod ba24899
Encoding settings : cabac=1 / ref=12 / deblock=1:-3:-3 / analyse=0x3:0x133 / me=umh / subme=11 / psy=1 / fade_compensate=0.00 / psy_rd=1.05:0.00 / mixed_ref=1 / me_range=48 / chroma_me=1 / trellis=2 / 8x8dct=1 / cqm=0 / deadzone=21,11 / fast_pskip=0 / chroma_qp_offset=-2 / threads=12 / lookahead_threads=2 / sliced_threads=0 / nr=0 / decimate=0 / interlaced=0 / bluray_compat=0 / constrained_intra=0 / bframes=8 / b_pyramid=2 / b_adapt=2 / b_bias=0 / direct=3 / weightb=1 / open_gop=0 / weightp=2 / keyint=240 / keyint_min=2 / scenecut=40 / intra_refresh=0 / rc_lookahead=0 / rc=2pass / mbtree=0 / bitrate=5000 / ratetol=1.0 / qcomp=0.70 / qpmin=0 / qpmax=69 / qpstep=4 / cplxblur=20.0 / qblur=0.5 / vbv_maxrate=50000 / vbv_bufsize=30000 / nal_hrd=none / filler=0 / ip_ratio=1.30 / pb_ratio=1.20 / aq=3:0.80
Language : English
Default : Yes
Forced : No

Audio #1
ID : 2
Format : AC-3
Format/Info : Audio Coding 3
Commercial name : Dolby Digital
Codec ID : A_AC3
Duration : 1 h 53 min
Bit rate mode : Constant
Bit rate : 384 kb/s
Channel(s) : 6 channels
Channel layout : L R C LFE Ls Rs
Sampling rate : 48.0 kHz
Frame rate : 31.250 FPS (1536 SPF)
Bit depth : 16 bits
Compression mode : Lossy
Stream size : 311 MiB (5%)
Title : iTunes
Language : Russian
Service kind : Complete Main
Default : Yes
Forced : Yes

Audio #2
ID : 3
Format : AC-3
Format/Info : Audio Coding 3
Commercial name : Dolby Digital
Codec ID : A_AC3
Duration : 1 h 53 min
Bit rate mode : Constant
Bit rate : 160 kb/s
Channel(s) : 2 channels
Channel layout : L R
Sampling rate : 48.0 kHz
Frame rate : 31.250 FPS (1536 SPF)
Bit depth : 16 bits
Compression mode : Lossy
Stream size : 130 MiB (2%)
Title : iTunes
Language : Ukrainian
Service kind : Complete Main
Default : No
Forced : No

Audio #3
ID : 4
Format : DTS
Format/Info : Digital Theater Systems
Codec ID : A_DTS
Duration : 1 h 53 min
Bit rate mode : Constant
Bit rate : 1 509 kb/s
Channel(s) : 6 channels
Channel layout : C L R Ls Rs LFE
Sampling rate : 48.0 kHz
Frame rate : 93.750 FPS (512 SPF)
Bit depth : 16 bits
Compression mode : Lossy
Stream size : 1.19 GiB (21%)
Title : Original
Language : English
Default : No
Forced : No

Text #1
ID : 5
Format : UTF-8
Codec ID : S_TEXT/UTF8
Codec ID/Info : UTF-8 Plain Text
Duration : 1 h 41 min
Bit rate : 5 b/s
Count of elements : 97
Stream size : 3.81 KiB (0%)
Title : Forced
Language : Russian
Default : Yes
Forced : Yes

Text #2
ID : 6
Format : UTF-8
Codec ID : S_TEXT/UTF8
Codec ID/Info : UTF-8 Plain Text
Duration : 1 h 52 min
Bit rate : 78 b/s
Count of elements : 1203
Stream size : 64.6 KiB (0%)
Title : Full
Language : Russian
Default : No
Forced : No

Text #3
ID : 7
Format : UTF-8
Codec ID : S_TEXT/UTF8
Codec ID/Info : UTF-8 Plain Text
Duration : 1 h 52 min
Bit rate : 5 b/s
Count of elements : 111
Stream size : 4.20 KiB (0%)
Title : Forced
Language : Ukrainian
Default : No
Forced : No

Text #4
ID : 8
Format : UTF-8
Codec ID : S_TEXT/UTF8
Codec ID/Info : UTF-8 Plain Text
Duration : 1 h 41 min
Bit rate : 51 b/s
Count of elements : 1409
Stream size : 38.1 KiB (0%)
Title : SDH
Language : English
Default : No
Forced : No

Menu
00:00:00.000 : en:Chapter 1
00:08:48.569 : en:Chapter 2
00:18:13.884 : en:Chapter 3
00:27:09.878 : en:Chapter 4
00:39:30.117 : en:Chapter 5
00:49:10.906 : en:Chapter 6
00:58:00.768 : en:Chapter 7
01:08:22.640 : en:Chapter 8
01:19:45.405 : en:Chapter 9
01:30:03.439 : en:Chapter 10
01:42:40.362 : en:Chapter 11
Источник http://BlaTor.org

Трекер:  [ 05-Ноя-2018 13:50 ]

  

Скачать .torrent

Размер .torrent файла 28 KB


Размер: 5.58 GB
Хэш (hash) релиза: d5f162885ea3e70b1ef2881a0101bd2f65ba4abc
Подписка на обновления:

Торренты, похожие на Мег: Монстр глубины The Meg скачать торрент

Форум Название Автор Размер S L Добавлен
Зарубежные фильмы 2016-2018 (Новинки зарубежного кино) ·%· Мег: Монстр глубины / The Meg (2018) BDRip 1080p от Ash61 | 3D-Video | halfOU | Лицензия Galfimbul 1211329737511.28 GB 0 0 1542365459

13:50

16-Ноя-18

Зарубежные фильмы 2016-2018 (Новинки зарубежного кино) ·%· Мег: Монстр глубины / The Meg (2018) BDRemux 1080p от селезень | 3D-Video | Лицензия Galfimbul 3378636390431.47 GB 0 0 1542204637

17:10

14-Ноя-18

Зарубежные фильмы 2016-2018 (Новинки зарубежного кино) ·%· Мег: Монстр глубины / The Meg (2018) Blu-Ray EUR 1080p | 3D-Video | Лицензия Galfimbul 4104926003238.23 GB 0 0 1542202840

16:40

14-Ноя-18

Зарубежные фильмы 2016-2018 (Новинки зарубежного кино) ·%· Мег: Монстр глубины / The Meg (2018) HDRip-AVC | Лицензия Galfimbul 774018817738 MB 0 0 1542138028

22:40

13-Ноя-18

Зарубежные фильмы 2016-2018 (Новинки зарубежного кино) ·%· Мег: Монстр глубины / The Meg (2018) HDRip от Portablius | Лицензия Galfimbul 835532800797 MB 0 0 1542069642

03:40

13-Ноя-18

Зарубежные фильмы 2016-2018 (Новинки зарубежного кино) ·%· Мег: Монстр глубины / The Meg (2018) BDRip-HEVC 1080p от KORSAR | Лицензия Galfimbul 66802720836.22 GB 0 0 1542040820

19:40

12-Ноя-18

Зарубежные фильмы 2016-2018 (Новинки зарубежного кино) ·%· Мег: Монстр глубины / The Meg (2018) BDRemux 1080p от селезень | Лицензия Galfimbul 1951139630218.17 GB 0 0 1541979029

02:30

12-Ноя-18

Зарубежные фильмы 2016-2018 (Новинки зарубежного кино) ·%· Мег: Монстр глубины / The Meg (2018) BDRip-AVC от HELLYWOOD | Лицензия Galfimbul 31255428422.91 GB 0 0 1541970677

00:11

12-Ноя-18

Зарубежные фильмы 2016-2018 (Новинки зарубежного кино) ·%· Мег: Монстр глубины / The Meg (2018) HDRip от Kaztorrents | КПК | Лицензия Galfimbul 453060853432 MB 0 0 1541962273

21:51

11-Ноя-18

Зарубежные фильмы 2016-2018 (Новинки зарубежного кино) ·%· Мег: Монстр глубины / The Meg (2018) UHD Blu-ray EUR 2160p | 4K | HDR | Лицензия Galfimbul 5885062140254.81 GB 0 0 1541916629

09:10

11-Ноя-18

Зарубежные фильмы 2016-2018 (Новинки зарубежного кино) ·%· Мег: Монстр глубины / The Meg (2018) BDRip 1080p от селезень | Лицензия Galfimbul 1283434440111.95 GB 0 0 1541914220

08:30

11-Ноя-18

Зарубежные фильмы 2016-2018 (Новинки зарубежного кино) ·%· Мег: Монстр глубины / The Meg (2018) BDRip 720p от селезень | Лицензия Galfimbul 60428607325.63 GB 0 0 1541913607

08:20

11-Ноя-18

Зарубежные фильмы 2016-2018 (Новинки зарубежного кино) ·%· Мег: Монстр глубины / The Meg (2018) BDRip-HEVC 1080p от sm0tJay | iTunes Galfimbul 49551947994.61 GB 0 0 1541674855

14:00

8-Ноя-18

Зарубежные фильмы 2016-2018 (Новинки зарубежного кино) ·%· Мег: Монстр глубины / The Meg (2018) BDRip от ExKinoRay | iTunes Galfimbul 22977802242.14 GB 0 0 1541643622

05:20

8-Ноя-18

Зарубежные фильмы 2016-2018 (Новинки зарубежного кино) ·%· Мег: Монстр глубины / The Meg (2018) BDRip 1080p от qqss44 & MegaPeer | iTunes Galfimbul 81009547057.54 GB 0 0 1541617256

22:00

7-Ноя-18

Зарубежные фильмы 2016-2018 (Новинки зарубежного кино) ·%· Мег: Монстр глубины / The Meg (2018) BDRip от ExKinoRay | iTunes Galfimbul 15156290041.41 GB 0 0 1541615434

21:30

7-Ноя-18

Зарубежные фильмы 2016-2018 (Новинки зарубежного кино) ·%· Мег: Монстр глубины / The Meg (2018) BDRemux 1080p от селезень | iTunes Galfimbul 1945699773618.12 GB 0 0 1541484711

09:11

6-Ноя-18

Зарубежные фильмы 2016-2018 (Новинки зарубежного кино) ·%· Мег: Монстр глубины / The Meg (2018) BDRip 1080p от селезень | iTunes Galfimbul 1277994586811.9 GB 0 0 1541421830

15:43

5-Ноя-18

Зарубежные фильмы 2016-2018 (Новинки зарубежного кино) ·%· Мег: Монстр глубины / The Meg (2018) HDRip от Dalemake | iTunes Galfimbul 15767813071.47 GB 0 0 1541353224

20:40

4-Ноя-18

Еще никто не оставлял запись к записи скачать торрент Мег: Монстр глубины The Meg . Будь первым!

!Обратная связь