Скачать через торрент Суперсемейка 2 Incredibles 2 Фильм бесплатно в хорошем качестве torrent

Скачивайте на UnionPeer.org фильмы через торрент без регистрации. Новинки кино в хорошем качестве через торрент. На UnionPeer.org можно скачать через торрент фильмы 2014 и 2015 годов. Самые новые фильмы.

Скачать торрент Суперсемейка 2 Incredibles 2 бесплатно через .torrent фильм мультфильм сериал

Статистика раздачи
Размер:  21.27 GB   |    Зарегистрирован:  14 дней   |    .torrent скачан:  109 раз   |   
Раздают:  1  
   
загрузка...
 
Автор Сообщение

Galfimbul

avatar Galfimbul


Суперсемейка 2 /Incredibles 2

Год выхода: 2018
Жанр: Мультфильм, фантастика, боевик, комедия, приключения, семейный, полнометражный
Режиссер: Брэд Берд
В ролях: Крэйг Т. Нельсон, Холли Хантер, Сара Вауэлл, Хак Милнер, Кэтрин Кинер, Илай Фучиле, Боб Оденкёрк, Сэмюэл Л. Джексон, Майкл Бёрд, София Буш



О фильме: После событий первой части суперсемейка пользуется повышенным вниманием со стороны журналистов. Неожиданно оказалось, что обаятельная Миссис Исключительная гораздо лучше смотрится на экране телевизора, чем её муж. Мистеру Исключительному все чаще приходится сидеть дома и приглядывать за детьми, у каждого из которых есть свои причины быть недовольным собственными суперспособностями. Однако семейным проблемам предстоит отступить на второй план, когда окажется, что спокойствию Суперсемейки угрожает новый могущественный враг.

Страна: США
Студия: Pixar Animation Studios, Walt Disney Pictures
Продолжительность: 01:57:50
Перевод: Дублированный | iTunes

Качество: BDRemux 1080p
Видео: MPEG-4 AVC, 1920x1080, 21.0 Mbit/s, 23.976 fps
Звук:
Аудио #01: 48 kHz, AC3, 5.1, 384 Kbps | iTunes | RUS |
Аудио #02: 48 kHz, DTS-HD MA, 7.1, 4490 Kbps | Оригинал | ENG |
Субтитры: Русские (Forced, full, SDH), английские

General
Unique ID : 180313389859890930129888748872470995557 (0x87A7187F2C6977F4E40F3BAB92CDA265)
Complete name : D:Video111The.Incredibles.2.2018.BDREMUX.1080p.selezen.mkv
Format : Matroska
Format version : Version 4
File size : 21.3 GiB
Duration : 1 h 57 min
Overall bit rate mode : Variable
Overall bit rate : 25.8 Mb/s
Movie name : The Incredibles 2 2018 from селезень
Encoded date : UTC 2018-11-01 23:30:05
Writing application : mkvmerge v28.0.0 ('Voice In My Head') 64-bit
Writing library : libebml v1.3.6 + libmatroska v1.4.9

Video
ID : 1
Format : AVC
Format/Info : Advanced Video Codec
Format profile : High@L4.1
Format settings : CABAC / 4 Ref Frames
Format settings, CABAC : Yes
Format settings, ReFrames : 4 frames
Format settings, GOP : M=1, N=12
Codec ID : V_MPEG4/ISO/AVC
Duration : 1 h 57 min
Bit rate mode : Variable
Bit rate : 21.0 Mb/s
Maximum bit rate : 29.7 Mb/s
Width : 1 920 pixels
Height : 1 080 pixels
Display aspect ratio : 16:9
Frame rate mode : Constant
Frame rate : 23.976 (24000/1001) FPS
Color space : YUV
Chroma subsampling : 4:2:0
Bit depth : 8 bits
Scan type : Progressive
Bits/(Pixel*Frame) : 0.422
Stream size : 17.3 GiB (81%)
Language : English
Default : Yes
Forced : No

Audio #1
ID : 2
Format : AC-3
Format/Info : Audio Coding 3
Commercial name : Dolby Digital
Codec ID : A_AC3
Duration : 1 h 57 min
Bit rate mode : Constant
Bit rate : 384 kb/s
Channel(s) : 6 channels
Channel layout : L R C LFE Ls Rs
Sampling rate : 48.0 kHz
Frame rate : 31.250 FPS (1536 SPF)
Bit depth : 16 bits
Compression mode : Lossy
Stream size : 324 MiB (1%)
Title : iTunes
Language : Russian
Service kind : Complete Main
Default : Yes
Forced : Yes

Audio #2
ID : 3
Format : DTS XLL
Format/Info : Digital Theater Systems
Commercial name : DTS-HD Master Audio
Codec ID : A_DTS
Duration : 1 h 57 min
Bit rate mode : Variable
Bit rate : 4 490 kb/s
Channel(s) : 8 channels
Channel layout : C L R LFE Lb Rb Lss Rss
Sampling rate : 48.0 kHz
Frame rate : 93.750 FPS (512 SPF)
Bit depth : 24 bits
Compression mode : Lossless
Stream size : 3.70 GiB (17%)
Title : Original
Language : English
Default : No
Forced : No

Text #1
ID : 4
Format : UTF-8
Codec ID : S_TEXT/UTF8
Codec ID/Info : UTF-8 Plain Text
Duration : 1 h 7 min
Bit rate : 0 b/s
Count of elements : 3
Stream size : 203 Bytes (0%)
Title : Forced
Language : Russian
Default : Yes
Forced : Yes

Text #2
ID : 5
Format : UTF-8
Codec ID : S_TEXT/UTF8
Codec ID/Info : UTF-8 Plain Text
Duration : 1 h 55 min
Bit rate : 118 b/s
Count of elements : 1760
Stream size : 101 KiB (0%)
Title : Full
Language : Russian
Default : No
Forced : No

Text #3
ID : 6
Format : UTF-8
Codec ID : S_TEXT/UTF8
Codec ID/Info : UTF-8 Plain Text
Duration : 1 h 54 min
Bit rate : 130 b/s
Count of elements : 2304
Stream size : 110 KiB (0%)
Title : SDH
Language : Russian
Default : No
Forced : No

Text #4
ID : 7
Format : UTF-8
Codec ID : S_TEXT/UTF8
Codec ID/Info : UTF-8 Plain Text
Duration : 1 h 54 min
Bit rate : 81 b/s
Count of elements : 2326
Stream size : 68.8 KiB (0%)
Title : SDH
Language : English
Default : No
Forced : No

Text #5
ID : 8
Format : UTF-8
Codec ID : S_TEXT/UTF8
Codec ID/Info : UTF-8 Plain Text
Duration : 1 h 54 min
Bit rate : 124 b/s
Count of elements : 2325
Stream size : 105 KiB (0%)
Title : SDH Colored
Language : English
Default : No
Forced : No

Menu
00:00:00.000 : :00:00:00.000
00:03:22.327 : :00:03:22.327
00:08:53.616 : :00:08:53.616
00:09:36.784 : :00:09:36.784
00:13:38.276 : :00:13:38.276
00:15:44.735 : :00:15:44.735
00:21:19.737 : :00:21:19.737
00:23:28.282 : :00:23:28.282
00:27:08.794 : :00:27:08.794
00:28:59.571 : :00:28:59.571
00:35:10.900 : :00:35:10.900
00:39:07.845 : :00:39:07.845
00:42:43.894 : :00:42:43.894
00:43:42.411 : :00:43:42.411
00:47:35.352 : :00:47:35.352
00:48:53.889 : :00:48:53.889
00:54:15.585 : :00:54:15.585
00:56:16.039 : :00:56:16.039
01:00:58.696 : :01:00:58.696
01:02:01.884 : :01:02:01.884
01:06:55.511 : :01:06:55.511
01:09:18.237 : :01:09:18.237
01:11:28.200 : :01:11:28.200
01:12:37.686 : :01:12:37.686
01:14:39.266 : :01:14:39.266
01:18:00.968 : :01:18:00.968
01:20:32.536 : :01:20:32.536
01:25:01.930 : :01:25:01.930
01:27:59.440 : :01:27:59.440
01:31:53.925 : :01:31:53.925
01:33:26.434 : :01:33:26.434
01:36:25.237 : :01:36:25.237
01:37:45.192 : :01:37:45.192
01:43:56.897 : :01:43:56.897
01:45:35.912 : :01:45:35.912
01:47:30.902 : :01:47:30.902
Источник http://BlaTor.org

Трекер:  [ 02-Ноя-2018 03:00 ]

  

Скачать .torrent

Размер .torrent файла 107 KB


Размер: 21.27 GB
Хэш (hash) релиза: 79cd5bf553eb5987cdf0d8dc7958a8e4dd48a929
Подписка на обновления:

Торренты, похожие на Суперсемейка 2 Incredibles 2 скачать торрент

Форум Название Автор Размер S L Добавлен
Мультфильмы 2016-2018 (Новинки мультфильмов) ·%· Суперсемейка 2 / Incredibles 2 (2018) UHD BDRemux 2160p от селезень | 4K | HDR | iTunes Galfimbul 4369982613940.7 GB 0 0 1541762501

14:21

9-Ноя-18

Мультфильмы 2016-2018 (Новинки мультфильмов) ·%· Суперсемейка 2 / Incredibles 2 (2018) HDRip от Scarabey | iTunes Galfimbul 14976327681.39 GB 0 0 1541438551

20:22

5-Ноя-18

Зарубежные фильмы 2016-2018 (Новинки зарубежного кино) ·%· Суперсемейка 2 / Incredibles 2 (2018) BDRip-AVC от HELLYWOOD | iTunes Galfimbul 15149514831.41 GB 0 0 1541348504

19:21

4-Ноя-18

Мультфильмы 2016-2018 (Новинки мультфильмов) ·%· Суперсемейка 2 / Incredibles 2 (2018) BDRip 1080p от qqss44 & MegaPeer | iTunes Galfimbul 56434809735.26 GB 0 0 1541328098

13:41

4-Ноя-18

Мультфильмы 2016-2018 (Новинки мультфильмов) ·%· Суперсемейка 2 / Incredibles 2 (2018) BDRip от ExKinoRay | iTunes Galfimbul 22864515842.13 GB 0 0 1541317923

10:52

4-Ноя-18

Мультфильмы 2016-2018 (Новинки мультфильмов) ·%· Суперсемейка 2 / Incredibles 2 (2018) BDRip от ExKinoRay | iTunes Galfimbul 15149492921.41 GB 0 0 1541315678

10:14

4-Ноя-18

Мультфильмы 2016-2018 (Новинки мультфильмов) ·%· Суперсемейка 2 / Incredibles 2 (2018) HDRip от Kaztorrents | КПК | iTunes Galfimbul 470046480448 MB 0 0 1541260217

18:50

3-Ноя-18

Мультфильмы 2016-2018 (Новинки мультфильмов) ·%· Суперсемейка 2 / Incredibles 2 (2018) BDRip 1080p от Ash61 | 3D-Video | halfOU | iTunes Galfimbul 81477977697.59 GB 0 0 1541256196

17:43

3-Ноя-18

Мультфильмы 2016-2018 (Новинки мультфильмов) ·%· Суперсемейка 2 / Incredibles 2 (2018) BDRip-HEVC 1080p от sm0tJay | iTunes Galfimbul 55643080195.18 GB 0 0 1541235838

12:03

3-Ноя-18

Мультфильмы 2016-2018 (Новинки мультфильмов) ·%· Суперсемейка 2 / Incredibles 2 (2018) BDRip 1080p от селезень | iTunes Galfimbul 90112400398.39 GB 0 0 1541139013

09:10

2-Ноя-18

Мультфильмы 2016-2018 (Новинки мультфильмов) ·%· Суперсемейка 2 / Incredibles 2 (2018) WEB-DLRip-AVC от ExKinoRay | iTunes Galfimbul 23155457032.16 GB 0 0 1540528039

07:27

26-Окт-18

Мультфильмы 2016-2018 (Новинки мультфильмов) ·%· Суперсемейка 2 / Incredibles 2 (2018) WEB-DLRip от MegaPeer | iTunes Galfimbul 15687211251.46 GB 0 0 1540497234

22:53

25-Окт-18

Мультфильмы 2016-2018 (Новинки мультфильмов) ·%· Суперсемейка 2 / Incredibles 2 (2018) WEB-DL 1080p от TeamHD | iTunes Galfimbul 46599733204.34 GB 0 0 1540494901

22:15

25-Окт-18

Мультфильмы 2016-2018 (Новинки мультфильмов) ·%· Суперсемейка 2 / Incredibles 2 (2018) TS 720p | GreenРай Studio Galfimbul 26698299982.49 GB 0 0 1532671817

09:10

27-Июл-18

Мультфильмы 2016-2018 (Новинки мультфильмов) ·%· Суперсемейка 2 / Incredibles 2 (2018) TS | GreenРай Studio Galfimbul 14737422821.37 GB 0 0 1532663412

06:50

27-Июл-18

Мультфильмы до 2016 ·· Суперсемейка / The Incredibles (Брэд Бёрд / Brad Bird) [2004 г., мультфильм, фэнтези, боевик, приключения, семейный, 2 х DVD9] Лицензионное издание от Видеосервиса Captain Claw 1275523686411.88 GB 0 0 1293315541

01:19

26-Дек-10

Еще никто не оставлял запись к записи скачать торрент Суперсемейка 2 Incredibles 2 . Будь первым!

!Обратная связь