Скачать через торрент История одного назначения Фильм бесплатно в хорошем качестве torrent

Скачивайте на UnionPeer.org фильмы через торрент без регистрации. Новинки кино в хорошем качестве через торрент. На UnionPeer.org можно скачать через торрент фильмы 2014 и 2015 годов. Самые новые фильмы.

Скачать торрент История одного назначения бесплатно через .torrent фильм мультфильм сериал

Статистика раздачи
Размер:  3.76 GB   |    Зарегистрирован:  23 дня   |    .torrent скачан:  193 раза   |   
Раздают:  1  
   
загрузка...
 
Автор Сообщение

Galfimbul

avatar Galfimbul


История одного назначения



[b]Год выпуска:
2018
Жанр: Драма
Режиссёр: Авдотья Смирнова
В ролях: Алексей Смирнов, Евгений Харитонов, Филипп Гуревич, Ирина Горбачева, Елизавета Янковская, Игорь Золотовицкий, Анна Михалкова, Сергей Уманов, Анна Пармас, Андрей Смирнов

Описание:
В пехотном полку в Тульской области, куда отправляется на службу вдохновленный передовыми идеями столичный поручик Григорий Колокольцев, происходит преступление. Солдату, на плечи которого ложится вина, грозит военный трибунал и расстрел. Колокольцев обращается за помощью к графу Толстому, который решает защитить невиновного.



Страна: Россия
Студия: Кинокомпания СТВ, Студия Глобус
Продолжительность: 01:48:51
Язык: Русский

Файл
Формат: MKV
Качество: WEB-DL 1080p
Видео: 1920x806 (2,40:1), 25 fps, MPEG-4 AVC ~ 4559 kbps avg, 0.118 bit/pixel
Звук: AC3, 48 kHz, 6 ch, ~384.00 kbps avg | русский | iTunes

Субтитры: Отсутствуют
Общее
Уникальный идентификатор : 294296718832543041431251551279401811942 (0xDD677C8059591BD183C0C69FC3863FE6)
Полное имя : ISTORYA_ODNOGO_NAZNACHENYA (2018) WEB-DL 1080p.mkv
Формат : Matroska
Версия формата : Version 4 / Version 2
Размер файла : 3,76 Гбайт
Продолжительность : 1 ч. 48 м.
Общий поток : 4945 Кбит/сек
Название фильма : История одного назначения (2018)
Дата кодирования : UTC 2018-10-23 11:40:02
Программа кодирования : mkvmerge v27.0.0 ('Metropolis') 64-bit
Библиотека кодирования : libebml v1.3.6 + libmatroska v1.4.9

Видео
Идентификатор : 1
Формат : AVC
Формат/Информация : Advanced Video Codec
Профиль формата : High@L4
Настройки формата : CABAC / 5 Ref Frames
Параметр CABAC формата : Да
Параметр RefFrames формата : 5 кадров
Идентификатор кодека : V_MPEG4/ISO/AVC
Продолжительность : 1 ч. 48 м.
Битрейт : 4559 Кбит/сек
Ширина : 1920 пикселей
Высота : 806 пикселей
Соотношение сторон : 2,40:1
Режим частоты кадров : Постоянный
Частота кадров : 25,000 кадров/сек
Цветовое пространство : YUV
Субдискретизация насыщенности : 4:2:0
Битовая глубина : 8 бит
Тип развёртки : Прогрессивная
Бит/(Пиксели*Кадры) : 0.118
Размер потока : 3,47 Гбайт (92%)
Заголовок : ISTORYA_ODNOGO_NAZNACHENYA (2018) WEB-DL 1080p
Язык : English
Default : Да
Forced : Да
Цветовой диапазон : Limited
Основные цвета : BT.709
Характеристики трансфера : BT.709
Коэффициенты матрицы : BT.709

Аудио
Идентификатор : 2
Формат : AC-3
Формат/Информация : Audio Coding 3
Идентификатор кодека : A_AC3
Продолжительность : 1 ч. 48 м.
Вид битрейта : Постоянный
Битрейт : 384 Кбит/сек
Каналы : 6 каналов
Расположение каналов : Front: L C R, Side: L R, LFE
Частота : 48,0 КГц
Частота кадров : 31,250 кадров/сек (1536 SPF)
Битовая глубина : 16 бит
Метод сжатия : С потерями
Задержка видео : -40 мс.
Размер потока : 299 Мбайт (8%)
Заголовок : iTunes | ISTORYA_ODNOGO_NAZNACHENYA (2018) WEB-DL 1080p
Язык : Russian
Default : Да
Forced : Да

Меню
00:00:00.000 : en:Глава 1
00:06:55.440 : en:Глава 2
00:12:49.880 : en:Глава 3
00:18:56.520 : en:Глава 4
00:26:18.400 : en:Глава 5
00:31:03.480 : en:Глава 6
00:37:57.840 : en:Глава 7
00:43:47.040 : en:Глава 8
00:49:13.080 : en:Глава 9
00:55:30.360 : en:Глава 10
01:00:35.040 : en:Глава 11
01:06:20.440 : en:Глава 12
01:10:49.560 : en:Глава 13
01:17:36.640 : en:Глава 14
01:25:17.560 : en:Глава 15
01:32:35.040 : en:Глава 16
01:39:31.960 : en:Глава 17
Источник http://BlaTor.org

Трекер:  [ 23-Окт-2018 15:00 ]

  

Скачать .torrent

Размер .torrent файла 19 KB


Размер: 3.76 GB
Хэш (hash) релиза: c44f5a04e946075a83ff8d802b0d607754ca6dc8
Подписка на обновления:

Торренты, похожие на История одного назначения скачать торрент

Форум Название Автор Размер S L Добавлен
Российские фильмы 2016-2018 (Новинки русского кино) ·%· История одного назначения (2018) WEB-DLRip от GeneralFilm | iTunes Galfimbul 782491648746 MB 0 0 1540338766

02:52

24-Окт-18

Российские фильмы 2016-2018 (Новинки русского кино) ·%· История одного назначения (2018) WEB-DLRip от MegaPeer | iTunes Galfimbul 15686574081.46 GB 0 0 1540313436

19:50

23-Окт-18

Российские фильмы 2016-2018 (Новинки русского кино) ·%· История одного назначения (2017) WEB-DL 1080p | iTunes Galfimbul 40366260513.76 GB 0 0 1540295611

14:53

23-Окт-18

Еще никто не оставлял запись к записи скачать торрент История одного назначения . Будь первым!

!Обратная связь