Скачать через торрент Распрекрасный принц Charming Фильм бесплатно в хорошем качестве torrent

Скачивайте на UnionPeer.org фильмы через торрент без регистрации. Новинки кино в хорошем качестве через торрент. На UnionPeer.org можно скачать через торрент фильмы 2014 и 2015 годов. Самые новые фильмы.

Скачать торрент Распрекрасный принц Charming бесплатно через .torrent фильм мультфильм сериал

Статистика раздачи
Размер:  1.59 GB   |    Зарегистрирован:  2 месяца 19 дней   |    .torrent скачан:  206 раз   |   
Раздают:  1  
   
загрузка...
 
Автор Сообщение

Galfimbul

avatar Galfimbul


Распрекрасный принц / Charming
«Украдут не только ваше внимание»


Год выпуска: 2018
Страна: США, Канада
Производство: 3QU Media,Cinesite, Storyoscopic Films
Жанр: Мультфильм, мюзикл, фэнтези, комедия, семейный, полнометражный

Режиссёр: Росс Венокур
В ролях: Деми Ловато, Уилмер Вальдеррама, Сиа, Ниа Вардалос, Эшли Тисдэйл, Аврил Лавин, Глория Тэнг, Джон Клиз, Ди Брэдли Бэйкер, Карлос Аласраки

Перевод: Дублированный | [iTunes]
Субтитры: Нет
Реклама: Отсутствует

Описание: О прекрасном принце мечтает каждая, что уж говорить о Распрекрасном. Необычный дар юноша получил еще при рождении: девушки готовы на всё ради его улыбки, но плата за это — праведный гнев мужчин. Такое положение дел не может продолжаться вечно, а дар вот-вот обернется проклятьем. И теперь у Распрекрасного принца всего три дня, чтобы спасти Королевство от самого себя…



Качество: WEB-DLRip-AVC | iTunes Version | Распрекрасный принц / Charming (2018) WEB-DL 1080p -BLUEBIRD
Продолжительность: 01:25:10

Формат: MKV
Видео кодек: MPEG-4 AVC
Аудио кодек: AC3
Видео: 1024x552 (1.85:1), 24,000 fps, x264 ~1 897 kbps avg, 0.140 bit/pixel
Аудио #1: 48 kHz, AC3 Dolby Digital, 3/2 (L,C,R,l,r) + LFE ch, ~384.00 kbps avg | RUS (iTunes)
Аудио #2: 48 kHz, AC3 Dolby Digital, 3/2 (L,C,R,l,r) + LFE ch, ~384.00 kbps avg | UKR (iTunes)

Дата премьеры (мир): 20 апреля 2018
Дата премьеры (РФ): 28 июня 2018, «Вольга»
Цифровой релиз: 21 августа 2018, «Вольга»
Общее
Уникальный идентификатор : 77619839656971663768417346190295521998 (0x3A65098F99399C40076975A9C44D5ACE)
Полное имя : F:OlLanDGroupCharming.2018.WEB-DLRip(AVC).OlLanDGroup.mkv
Формат : Matroska
Версия формата : Version 4 / Version 2
Размер файла : 1,59 Гбайт
Продолжительность : 1 ч. 25 м.
Общий поток : 2666 Кбит/сек
Название фильма : Charming.2018 #TorpedoUK#
Дата кодирования : UTC 2018-08-28 09:25:16
Программа кодирования : mkvmerge v25.0.0 ('Prog Noir') 64-bit
Библиотека кодирования : libebml v1.3.6 + libmatroska v1.4.9

Видео
Идентификатор : 1
Формат : AVC
Формат/Информация : Advanced Video Codec
Профиль формата : High@L4.1
Параметр CABAC формата : Да
Параметр ReFrames формата : 10 кадров
Идентификатор кодека : V_MPEG4/ISO/AVC
Продолжительность : 1 ч. 25 м.
Битрейт : 1897 Кбит/сек
Ширина : 1024 пикселя
Высота : 552 пикселя
Соотношение сторон : 1,85:1
Режим частоты кадров : Постоянный
Частота кадров : 24,000 кадра/сек
Цветовое пространство : YUV
Субдискретизация насыщенности : 4:2:0
Битовая глубина : 8 бит
Тип развёртки : Прогрессивная
Бит/(Пиксели*Кадры) : 0.140
Размер потока : 1,13 Гбайт (71%)
Библиотека кодирования : x264 core 146 r2538 121396c
Настройки программы : cabac=1 / ref=10 / deblock=1:-3:-3 / analyse=0x3:0x113 / me=umh / subme=11 / psy=1 / psy_rd=0.99:0.04 / mixed_ref=1 / me_range=48 / chroma_me=1 / trellis=2 / 8x8dct=1 / cqm=0 / deadzone=21,11 / fast_pskip=1 / chroma_qp_offset=-3 / threads=6 / lookahead_threads=1 / sliced_threads=0 / nr=0 / decimate=1 / interlaced=0 / bluray_compat=0 / constrained_intra=0 / bframes=10 / b_pyramid=2 / b_adapt=2 / b_bias=0 / direct=3 / weightb=1 / open_gop=0 / weightp=2 / keyint=240 / keyint_min=24 / scenecut=40 / intra_refresh=0 / rc_lookahead=40 / rc=2pass / mbtree=1 / bitrate=1897 / ratetol=1.0 / qcomp=0.60 / qpmin=0 / qpmax=69 / qpstep=4 / cplxblur=20.0 / qblur=0.5 / vbv_maxrate=50000 / vbv_bufsize=62500 / nal_hrd=none / filler=0 / ip_ratio=1.40 / aq=1:1.00
Язык : English
Default : Да
Forced : Нет

Аудио #1
Идентификатор : 2
Формат : AC-3
Формат/Информация : Audio Coding 3
Расширение режима : CM (complete main)
Параметр Endianness формата : Big
Идентификатор кодека : A_AC3
Продолжительность : 1 ч. 25 м.
Вид битрейта : Постоянный
Битрейт : 384 Кбит/сек
Каналы : 6 каналов
Расположение каналов : Front: L C R, Side: L R, LFE
Частота : 48,0 КГц
Частота кадров : 31,250 кадров/сек (1536 spf)
Битовая глубина : 16 бит
Метод сжатия : С потерями
Размер потока : 234 Мбайт (14%)
Заголовок : [DUB] DD 5.1 @ 384 kbps (iTunes)
Язык : Russian
Default : Да
Forced : Нет

Аудио #2
Идентификатор : 3
Формат : AC-3
Формат/Информация : Audio Coding 3
Расширение режима : CM (complete main)
Параметр Endianness формата : Big
Идентификатор кодека : A_AC3
Продолжительность : 1 ч. 25 м.
Вид битрейта : Постоянный
Битрейт : 384 Кбит/сек
Каналы : 6 каналов
Расположение каналов : Front: L C R, Side: L R, LFE
Частота : 48,0 КГц
Частота кадров : 31,250 кадров/сек (1536 spf)
Битовая глубина : 16 бит
Метод сжатия : С потерями
Размер потока : 234 Мбайт (14%)
Заголовок : [DUB] DD 5.1 @ 384 kbps (iTunes)
Язык : Ukrainian
Default : Нет
Forced : Нет

Меню
00:00:00.000 : en:Глава 1
00:07:25.041 : en:Глава 2
00:15:09.499 : en:Глава 3
00:22:51.707 : en:Глава 4
00:30:19.457 : en:Глава 5
00:38:10.290 : en:Глава 6
00:45:46.956 : en:Глава 7
00:52:58.997 : en:Глава 8
01:00:17.247 : en:Глава 9
01:07:25.288 : en:Глава 10
Источник http://BlaTor.org

Трекер:  [ 28-Авг-2018 12:50 ]

  

Скачать .torrent

Размер .torrent файла 16 KB


Размер: 1.59 GB
Хэш (hash) релиза: ac676b895fb2429554bb3fbb9403e0872f575fca
Подписка на обновления:

Торренты, похожие на Распрекрасный принц Charming скачать торрент

Форум Название Автор Размер S L Добавлен
Мультфильмы 2016-2018 (Новинки мультфильмов) ·%· Распрекрасный принц / Charming (2018) BDRip от ExKinoRay | iTunes Galfimbul 15291329881.42 GB 0 0 1540828987

19:03

29-Окт-18

Мультфильмы 2016-2018 (Новинки мультфильмов) ·%· Распрекрасный принц / Charming (2018) WEB-DLRip от MegaPeer | iTunes Galfimbul 15685242881.46 GB 0 0 1535442634

10:50

28-Авг-18

Мультфильмы 2016-2018 (Новинки мультфильмов) ·%· Распрекрасный принц / Charming (2018) WEB-DL 1080p | iTunes Galfimbul 37458660723.49 GB 0 0 1535425816

06:10

28-Авг-18

Еще никто не оставлял запись к записи скачать торрент Распрекрасный принц Charming . Будь первым!

!Обратная связь