Скачать через торрент Распрекрасный принц Charming Фильм бесплатно в хорошем качестве torrent

Скачивайте на UnionPeer.org фильмы через торрент без регистрации. Новинки кино в хорошем качестве через торрент. На UnionPeer.org можно скачать через торрент фильмы 2014 и 2015 годов. Самые новые фильмы.

Скачать торрент Распрекрасный принц Charming бесплатно через .torrent фильм мультфильм сериал

Статистика раздачи
Размер:  3.49 GB   |    Зарегистрирован:  2 месяца 20 дней   |    .torrent скачан:  195 раз   |   
Раздают:  1  
   
загрузка...
 
Автор Сообщение

Galfimbul

avatar Galfimbul


Распрекрасный принц /Charming

Год выхода: 2018
Жанр: Мультфильм, мюзикл, фэнтези, комедия, семейный
Режиссер: Росс Венокур
В ролях: Деми Ловато, Уилмер Вальдеррама, Сиа, Ниа Вардалос, Эшли Тисдэйл, Аврил Лавин, Глория Тэнг, Джон Клиз, Ди Брэдли Бэйкер, Карлос Аласраки

О фильме:
О прекрасном принце мечтает каждая, что уж говорить о Распрекрасном. Необычный дар юноша получил еще при рождении: девушки готовы на всё ради его улыбки, но плата за это — праведный гнев мужчин. Такое положение дел не может продолжаться вечно, а дар вот-вот обернется проклятьем. И теперь у Распрекрасного принца всего три дня, чтобы спасти Королевство от самого себя…



Страна: США, Канада
Студия: 3QU Media, Cinesite, Storyoscopic Films, Vanguard Animation, WV Enterprises
Продолжительность: 1:25:10
Перевод: Дублированный | iTunes

Файл
Качество: WEB-DL 1080p
Формат: MKV
Кодек: MPEG-4 AVC
Видео: 1920x1036 (1,85:1), 24 fps, MPEG-4 AVC ~ 5094 Kbps avg, 0.107 bit/pixel
Аудио: AC3, 48 kHz, 6 ch, ~384.00 kbps avg | русский |iTunes
Аудио: AC3, 48 kHz, 6 ch, ~384.00 kbps avg | украинский | iTunes

Субтитры: Отсутствуют
Семпл
Общее
Уникальный идентификатор : 232424694094469338081713869619629066513 (0xAEDB5E2943E938969079D88990D30911)
Полное имя : CHARMING_2O18_D.WEB-DL_1O8Op.mkv
Формат : Matroska
Версия формата : Version 4 / Version 2
Размер файла : 3,49 Гбайт
Продолжительность : 1 ч. 25 м.
Общий поток : 5864 Кбит/сек
Название фильма : CHARMING_WEB_DL_1080p
Дата кодирования : UTC 2018-08-28 02:16:04
Программа кодирования : mkvmerge v20.0.0 ('I Am The Sun') 64-bit
Библиотека кодирования : libebml v1.3.5 + libmatroska v1.4.8
Видео
Идентификатор : 1
Формат : AVC
Формат/Информация : Advanced Video Codec
Профиль формата : High@L4
Настройки формата : CABAC / 4 Ref Frames
Параметр CABAC формата : Да
Параметр RefFrames формата : 4 кадра
Идентификатор кодека : V_MPEG4/ISO/AVC
Продолжительность : 1 ч. 25 м.
Битрейт : 5094 Кбит/сек
Ширина : 1920 пикселей
Высота : 1036 пикселей
Соотношение сторон : 1,85:1
Режим частоты кадров : Постоянный
Частота кадров : 24,000 кадра/сек
Цветовое пространство : YUV
Субдискретизация насыщенности : 4:2:0
Битовая глубина : 8 бит
Тип развёртки : Прогрессивная
Бит/(Пиксели*Кадры) : 0.107
Размер потока : 3,03 Гбайт (87%)
Заголовок : CHARMING_WEB_DL_1080p
Язык : English
Default : Да
Forced : Нет
Цветовой диапазон : Limited
Основные цвета : BT.709
Характеристики трансфера : BT.709
Коэффициенты матрицы : BT.709
Аудио #1
Идентификатор : 2
Формат : AC-3
Формат/Информация : Audio Coding 3
Идентификатор кодека : A_AC3
Продолжительность : 1 ч. 25 м.
Вид битрейта : Постоянный
Битрейт : 384 Кбит/сек
Каналы : 6 каналов
Расположение каналов : Front: L C R, Side: L R, LFE
Частота : 48,0 КГц
Частота кадров : 31,250 кадров/сек (1536 SPF)
Битовая глубина : 16 бит
Метод сжатия : С потерями
Размер потока : 234 Мбайт (7%)
Заголовок : iTunes
Язык : Russian
Default : Да
Forced : Нет
Аудио #2
Идентификатор : 3
Формат : AC-3
Формат/Информация : Audio Coding 3
Идентификатор кодека : A_AC3
Продолжительность : 1 ч. 25 м.
Вид битрейта : Постоянный
Битрейт : 384 Кбит/сек
Каналы : 6 каналов
Расположение каналов : Front: L C R, Side: L R, LFE
Частота : 48,0 КГц
Частота кадров : 31,250 кадров/сек (1536 SPF)
Битовая глубина : 16 бит
Метод сжатия : С потерями
Размер потока : 234 Мбайт (7%)
Заголовок : iTunes
Язык : Ukrainian
Default : Нет
Forced : Нет
Меню
00:00:00.000 : en:Глава 1
00:07:25.041 : en:Глава 2
00:15:09.499 : en:Глава 3
00:22:51.707 : en:Глава 4
00:30:19.457 : en:Глава 5
00:38:10.290 : en:Глава 6
00:45:46.956 : en:Глава 7
00:52:58.997 : en:Глава 8
01:00:17.247 : en:Глава 9
01:07:25.288 : en:Глава 10
Источник http://BlaTor.org

Трекер:  [ 28-Авг-2018 06:10 ]

  

Скачать .torrent

Размер .torrent файла 18 KB


Размер: 3.49 GB
Хэш (hash) релиза: 9a75e2e5816f98aee8b1eaa16535e6b1181a3cf2
Подписка на обновления:

Торренты, похожие на Распрекрасный принц Charming скачать торрент

Форум Название Автор Размер S L Добавлен
Мультфильмы 2016-2018 (Новинки мультфильмов) ·%· Распрекрасный принц / Charming (2018) BDRip от ExKinoRay | iTunes Galfimbul 15291329881.42 GB 0 0 1540828987

19:03

29-Окт-18

Мультфильмы 2016-2018 (Новинки мультфильмов) ·%· Распрекрасный принц / Charming (2018) WEB-DLRip-AVC от OlLanDGroup | iTunes Galfimbul 17026088631.59 GB 0 0 1535449861

12:51

28-Авг-18

Мультфильмы 2016-2018 (Новинки мультфильмов) ·%· Распрекрасный принц / Charming (2018) WEB-DLRip от MegaPeer | iTunes Galfimbul 15685242881.46 GB 0 0 1535442634

10:50

28-Авг-18

Еще никто не оставлял запись к записи скачать торрент Распрекрасный принц Charming . Будь первым!

!Обратная связь