Скачать через торрент Разочарование Disenchantment Фильм бесплатно в хорошем качестве torrent

Скачивайте на UnionPeer.org фильмы через торрент без регистрации. Новинки кино в хорошем качестве через торрент. На UnionPeer.org можно скачать через торрент фильмы 2014 и 2015 годов. Самые новые фильмы.

Скачать торрент Разочарование Disenchantment бесплатно через .torrent фильм мультфильм сериал

Статистика раздачи
Размер:  1.62 GB   |    Зарегистрирован:  2 месяца 20 дней   |    .torrent скачан:  96 раз   |   
Раздают:  1  
   
загрузка...
 
Автор Сообщение

Galfimbul

avatar Galfimbul


Разочарование /Disenchantment

Год выхода: 2018
Жанр: Мультсериал, фэнтези, комедия, приключения
Режиссер: Мэтт Грейнинг
В ролях: Эбби Джейкобсон, Эрик Андре, Нат Факсон, Джон Ди Маджио, Тресс МакНилл, Дэвид Херман, Морис ЛаМарш, Билли Уэст, Джэйни Баттен, Рич Фулчер

О фильме:
Сериал рассказывает о принцессе-алкоголичке Бин, её эльфе-компаньоне Элфо и «личном демоне» Люци, которые живут в средневековом королевстве Дримландия.



Страна: США
Студия: Netflix, The ULULU Company, Rough Draft Studios
Продолжительность: 00:36:10
Перевод:
Профессиональный многоголосый VO-production
Профессиональный многоголосый Jaskier
Профессиональный многоголосый AlexFilm

Файл
Кодек: MPEG-4 AVC
Качество: WEBRip 1080p
Видео: 1920x1080, 23.976fps, 5000kbps
Звук:
Русский (VO-production) Dolby AC3 48000Hz stereo 256kbps
Русский (Jaskier) Dolby AC3 48000Hz 6ch 384kbps
Русский (AlexFilm) Dolby AC3 48000Hz 6ch 384kbps
English (original) Dolby AC3 48000Hz 6ch 384kbps
Субтитры: русские, английские (subrip)

Без рекламы!
General
Unique ID : 179740391714723547137971448944395650477 (0x8738BD81CE4229FEB6A08A76C78585AD)
Complete name : F:MultsHDDisenchantment _s01_1080pDisenchantment.s01e01.1080p.VO.Jaskier.AlexFilm.eng.mkv
Format : Matroska
Format version : Version 4 / Version 2
File size : 1.62 GiB
Duration : 36 min 10 s
Overall bit rate : 6 413 kb/s
Movie name : Disenchantment 1x01 @ AlexFilm
Encoded date : UTC 2018-08-27 05:39:55
Writing application : mkvmerge v26.0.0 ('In The Game') 64-bit
Writing library : libebml v1.3.6 + libmatroska v1.4.9

Video
ID : 1
Format : AVC
Format/Info : Advanced Video Codec
Format profile : High@L4.1
Format settings : CABAC / 3 Ref Frames
Format settings, CABAC : Yes
Format settings, ReFrames : 3 frames
Codec ID : V_MPEG4/ISO/AVC
Duration : 36 min 10 s
Bit rate : 5 000 kb/s
Width : 1 920 pixels
Height : 1 080 pixels
Display aspect ratio : 16:9
Frame rate mode : Constant
Frame rate : 23.976 FPS
Color space : YUV
Chroma subsampling : 4:2:0
Bit depth : 8 bits
Scan type : Progressive
Bits/(Pixel*Frame) : 0.101
Stream size : 1.23 GiB (76%)
Writing library : x264 core 64 r971kMod ead8857
Encoding settings : cabac=1 / ref=3 / deblock=1:0:0 / analyse=0x3:0x133 / me=umh / subme=6 / psy_rd=1.0:0.0 / brdo=1 / mixed_ref=1 / me_range=16 / chroma_me=1 / trellis=1 / 8x8dct=1 / cqm=0 / deadzone=21,11 / chroma_qp_offset=-2 / threads=4 / nr=0 / decimate=1 / mbaff=0 / bframes=3 / b_pyramid=1 / b_adapt=1 / b_bias=0 / direct=3 / wpredb=1 / bime=1 / keyint=250 / keyint_min=25 / scenecut=40(pre) / rc=2pass / bitrate=5000 / ratetol=1.0 / qcomp=0.60 / qpmin=10 / qpmax=51 / qpstep=4 / cplxblur=20.0 / qblur=0.5 / ip_ratio=1.40 / pb_ratio=1.30 / aq=1:1.00
Default : Yes
Forced : No

Audio #1
ID : 2
Format : AC-3
Format/Info : Audio Coding 3
Codec ID : A_AC3
Duration : 36 min 10 s
Bit rate mode : Constant
Bit rate : 256 kb/s
Channel(s) : 2 channels
Channel positions : Front: L R
Sampling rate : 48.0 kHz
Frame rate : 31.250 FPS (1536 SPF)
Bit depth : 16 bits
Compression mode : Lossy
Stream size : 66.2 MiB (4%)
Title : Russian (VO-production)
Language : Russian
Service kind : Complete Main
Default : Yes
Forced : No

Audio #2
ID : 3
Format : AC-3
Format/Info : Audio Coding 3
Codec ID : A_AC3
Duration : 36 min 10 s
Bit rate mode : Constant
Bit rate : 384 kb/s
Channel(s) : 6 channels
Channel positions : Front: L C R, Side: L R, LFE
Sampling rate : 48.0 kHz
Frame rate : 31.250 FPS (1536 SPF)
Bit depth : 16 bits
Compression mode : Lossy
Stream size : 99.4 MiB (6%)
Title : Russian (Jaskier)
Language : Russian
Service kind : Complete Main
Default : No
Forced : No

Audio #3
ID : 4
Format : AC-3
Format/Info : Audio Coding 3
Codec ID : A_AC3
Duration : 36 min 10 s
Bit rate mode : Constant
Bit rate : 384 kb/s
Channel(s) : 6 channels
Channel positions : Front: L C R, Side: L R, LFE
Sampling rate : 48.0 kHz
Frame rate : 31.250 FPS (1536 SPF)
Bit depth : 16 bits
Compression mode : Lossy
Stream size : 99.4 MiB (6%)
Title : Russian (AlexFilm)
Language : Russian
Service kind : Complete Main
Default : No
Forced : No

Audio #4
ID : 5
Format : AC-3
Format/Info : Audio Coding 3
Codec ID : A_AC3
Duration : 36 min 10 s
Bit rate mode : Constant
Bit rate : 384 kb/s
Channel(s) : 6 channels
Channel positions : Front: L C R, Side: L R, LFE
Sampling rate : 48.0 kHz
Frame rate : 31.250 FPS (1536 SPF)
Bit depth : 16 bits
Compression mode : Lossy
Stream size : 99.4 MiB (6%)
Title : English
Language : English
Service kind : Complete Main
Default : No
Forced : No

Text #1
ID : 6
Format : UTF-8
Codec ID : S_TEXT/UTF8
Codec ID/Info : UTF-8 Plain Text
Language : Russian
Default : No
Forced : No

Text #2
ID : 7
Format : UTF-8
Codec ID : S_TEXT/UTF8
Codec ID/Info : UTF-8 Plain Text
Language : English
Default : No
Forced : No
Источник http://BlaTor.org

Трекер:  [ 27-Авг-2018 14:40 ]

  

Скачать .torrent

Размер .torrent файла 17 KB


Размер: 1.62 GB
Хэш (hash) релиза: 8258235f492b45be3703a232d7bc655529fd76cb
Подписка на обновления:

Торренты, похожие на Разочарование Disenchantment скачать торрент

Форум Название Автор Размер S L Добавлен
Мультфильмы 2016-2018 (Новинки мультфильмов) ·%· Разочарование / Disenchantment [S01] (2018) WEB-DL 1080p | NewStation Galfimbul 1223842006811.4 GB 0 0 1540569952

19:05

26-Окт-18

Мультфильмы 2016-2018 (Новинки мультфильмов) ·%· Разочарование / Disenchantment [S01] (2018) WEBRip 720p | NewStation Galfimbul 82853554647.72 GB 0 0 1540569789

19:03

26-Окт-18

Мультфильмы 2016-2018 (Новинки мультфильмов) ·%· Разочарование / Disenchantment [S01] (2018) WEB-DLRip | NewStation Galfimbul 48112701444.48 GB 0 0 1540569701

19:01

26-Окт-18

Мультфильмы 2016-2018 (Новинки мультфильмов) ·%· Разочарование / Disenchantment [S01] (2018) WEBRip 720p | RusFilm Galfimbul 91982245798.57 GB 0 0 1538982943

10:15

8-Окт-18

Мультфильмы 2016-2018 (Новинки мультфильмов) ·%· Разочарование / Disenchantment [S01] (2018) WEB-DLRip 1080p | Flarrow Films Galfimbul 102038423979.5 GB 0 0 1536600767

20:32

10-Сен-18

Мультфильмы 2016-2018 (Новинки мультфильмов) ·%· Разочарование / Disenchantment [01x01-05 из 10] (2018) WEBRip 1080p | Good People Galfimbul 64149043135.97 GB 0 0 1536241268

16:41

6-Сен-18

Мультфильмы 2016-2018 (Новинки мультфильмов) ·%· Разочарование / Disenchantment [01x01-05 из 10] (2018) WEBRip 720p | Good People Galfimbul 43030490894.01 GB 0 0 1536097834

00:50

5-Сен-18

Мультфильмы 2016-2018 (Новинки мультфильмов) ·%· Разочарование / Disenchantment [01x01-05 из 10] (2018) WEBRip | Good People Galfimbul 19441622301.81 GB 0 0 1536084890

21:14

4-Сен-18

Мультфильмы 2016-2018 (Новинки мультфильмов) ·%· Разочарование / Disenchantment [S01] (2018) WEB-DL 1080p | Jaskier Galfimbul 1110865451310.35 GB 0 0 1535447443

12:10

28-Авг-18

Мультфильмы 2016-2018 (Новинки мультфильмов) ·%· Разочарование / Disenchantment [01x01-05 из 10] (2018) WEB-DLRip | Jaskier Galfimbul 20879605761.94 GB 0 0 1535280859

13:54

26-Авг-18

Мультфильмы 2016-2018 (Новинки мультфильмов) ·%· Разочарование / Disenchantment [01x01-05 из 10] (2018) WEB-DL 720p | Jaskier Galfimbul 37213359663.47 GB 0 0 1535280845

13:54

26-Авг-18

Мультфильмы 2016-2018 (Новинки мультфильмов) ·%· Разочарование / Disenchantment [01x01-05 из 10] (2018) WEBRip 720p | NewStudio Galfimbul 40119974153.74 GB 0 0 1534942840

16:00

22-Авг-18

Мультфильмы 2016-2018 (Новинки мультфильмов) ·%· Разочарование / Disenchantment [S01] (2018) WEBRip | ColdFilm Galfimbul 26785821542.49 GB 0 0 1534659822

09:23

19-Авг-18

Мультфильмы 2016-2018 (Новинки мультфильмов) ·%· Разочарование / Disenchantment [01x01-02 из 10] (2018) WEBRip 720p | OMSKBIRD Galfimbul 14731871111.37 GB 0 0 1534572625

09:10

18-Авг-18

Мультфильмы 2016-2018 (Новинки мультфильмов) ·%· Разочарование / Disenchantment [01x01-02 из 10] (2018) WEBRip | OMSKBIRD Galfimbul 930885632888 MB 0 0 1534572615

09:10

18-Авг-18

Еще никто не оставлял запись к записи скачать торрент Разочарование Disenchantment . Будь первым!

!Обратная связь