Скачать через торрент Разочарование Disenchantment Фильм бесплатно в хорошем качестве torrent

Скачивайте на UnionPeer.org фильмы через торрент без регистрации. Новинки кино в хорошем качестве через торрент. На UnionPeer.org можно скачать через торрент фильмы 2014 и 2015 годов. Самые новые фильмы.

Скачать торрент Разочарование Disenchantment бесплатно через .torrent фильм мультфильм сериал

Статистика раздачи
Размер:  1.37 GB   |    Зарегистрирован:  2 месяца 29 дней   |    .torrent скачан:  229 раз   |   
Раздают:  1  
   
загрузка...
 
Автор Сообщение

Galfimbul

avatar Galfimbul


Разочарование /Disenchantment

Год выхода: 2018
Жанр: мультфильм, фэнтези, комедия, приключения
Режиссер: Мэтт Грейнинг
В ролях: Эрик Андре, Мэтт Берри, Джон Ди Маджио, Нат Факсон, Ноэль Филдинг, Дэвид Херман, Эбби Джейкобсон, Морис ЛаМарш, Тресс МакНилл, Билли Уэст и др.

О фильме:
Действие разворачивается в Средневековье в королевстве Бинландия, где живёт юная принцесса-алкоголичка Бин. Отказавшись выходить замуж, Бин отправляется в путешествие по стране в компании эльфа и демона. По дороге трио встретит множество фантастических тварей и дураков людского происхождения.


Страна: США
Продолжительность: ~ 00:30:00 серия
Перевод: Любительский (многоголосый закадровый) | OMSKBIRD

Файл
Кодек: MPEG-4 AVC
Качество: WEBRip 720p
Видео: AVC, 1280x720 (16:9), 23.976 fps, ~ 3000 kbps
Звук: Аудио rus: AC-3, 48 KHz, 2 ch, 192 kbps | OMSKBIRD

Семпл

Присутствует реклама!
General
Unique ID : 253889892598567372381203299216114977443 (0xBF016A2807415DCB840475CD7EFA0AA3)
Complete name : H:Мои ДокументыВидеоРАЗДАЧИРазочарованиеDisenchantment S01 WEBRip 720p (OMSKBIRD)Disenchantment S01E01 WEBRip 720p (OMSKBIRD).mkv
Format : Matroska
Format version : Version 2
File size : 791 MiB
Duration : 36 min 47 s
Overall bit rate : 3 005 kb/s
Encoded date : UTC 2018-08-17 18:03:22
Writing application : mkvmerge v4.0.0 ('The Stars were mine') сборка от Jun 6 2010 16:18:42
Writing library : libebml v1.0.0 + libmatroska v1.0.0

Video
ID : 1
Format : AVC
Format/Info : Advanced Video Codec
Format profile : Main@L4.1
Format settings, CABAC : Yes
Format settings, RefFrames : 3 frames
Codec ID : V_MPEG4/ISO/AVC
Duration : 36 min 47 s
Bit rate : 2 753 kb/s
Width : 1 280 pixels
Height : 720 pixels
Display aspect ratio : 16:9
Frame rate mode : Constant
Frame rate : 23.976 (24000/1001) FPS
Standard : NTSC
Color space : YUV
Chroma subsampling : 4:2:0
Bit depth : 8 bits
Scan type : Progressive
Bits/(Pixel*Frame) : 0.125
Stream size : 725 MiB (92%)
Language : English
Default : Yes
Forced : No
Color range : Limited
Color primaries : BT.709
Transfer characteristics : BT.709
Matrix coefficients : BT.709

Audio
ID : 2
Format : AC-3
Format/Info : Audio Coding 3
Format settings, Endianness : Big
Codec ID : A_AC3
Duration : 36 min 47 s
Bit rate mode : Constant
Bit rate : 192 kb/s
Channel(s) : 2 channels
Channel positions : Front: L R
Sampling rate : 48.0 kHz
Frame rate : 31.250 FPS (1536 SPF)
Bit depth : 16 bits
Compression mode : Lossy
Stream size : 50.5 MiB (6%)
Service kind : Complete Main
Default : Yes
Forced : No
Внимание! Раздача ведётся путём добавления новых серий; при каждом добавлении создаётся новый торрент. Чтобы начать докачку новой серии, пользователям необходимо сделать следующее:
Остановить скачивание.
Удалить старый торрент у себя из клиента (старые серии удалять не надо).
Скачать новый торрент и запустить его у себя в клиенте вместо старого, при этом указать клиенту путь в старую папку куда и должно происходить скачивание новых серий.
Ваш клиент при этом должен произвести хеширование (проверку) старой папки (если не производит сам - помогите ему сделать это), и будет докачивать только те серии которых у вас ещё нет. Старые серии при этом не удаляются, а продолжают раздаваться!
Eсли вы уже удалили старые серии, то предотвратить повторную закачку старых серий можно, отжав галочку в соответсвующих местах при запуске нового торрента. По возможности, желательно не удалять старые серии как можно дольше чтобы релизёр не столько продолжал раздавать старые серии, а смог сконцентрироваться на новых.
Источник http://BlaTor.org

Трекер:  [ 18-Авг-2018 09:10 ]

  

Скачать .torrent

Размер .torrent файла 14 KB


Размер: 1.37 GB
Хэш (hash) релиза: 34a5bf3c4f098870b7a776ac4cba646acbcd7df9
Подписка на обновления:

Торренты, похожие на Разочарование Disenchantment скачать торрент

Форум Название Автор Размер S L Добавлен
Мультфильмы 2016-2018 (Новинки мультфильмов) ·%· Разочарование / Disenchantment [S01] (2018) WEB-DL 1080p | NewStation Galfimbul 1223842006811.4 GB 0 0 1540569952

19:05

26-Окт-18

Мультфильмы 2016-2018 (Новинки мультфильмов) ·%· Разочарование / Disenchantment [S01] (2018) WEBRip 720p | NewStation Galfimbul 82853554647.72 GB 0 0 1540569789

19:03

26-Окт-18

Мультфильмы 2016-2018 (Новинки мультфильмов) ·%· Разочарование / Disenchantment [S01] (2018) WEB-DLRip | NewStation Galfimbul 48112701444.48 GB 0 0 1540569701

19:01

26-Окт-18

Мультфильмы 2016-2018 (Новинки мультфильмов) ·%· Разочарование / Disenchantment [S01] (2018) WEBRip 720p | RusFilm Galfimbul 91982245798.57 GB 0 0 1538982943

10:15

8-Окт-18

Мультфильмы 2016-2018 (Новинки мультфильмов) ·%· Разочарование / Disenchantment [S01] (2018) WEB-DLRip 1080p | Flarrow Films Galfimbul 102038423979.5 GB 0 0 1536600767

20:32

10-Сен-18

Мультфильмы 2016-2018 (Новинки мультфильмов) ·%· Разочарование / Disenchantment [01x01-05 из 10] (2018) WEBRip 1080p | Good People Galfimbul 64149043135.97 GB 0 0 1536241268

16:41

6-Сен-18

Мультфильмы 2016-2018 (Новинки мультфильмов) ·%· Разочарование / Disenchantment [01x01-05 из 10] (2018) WEBRip 720p | Good People Galfimbul 43030490894.01 GB 0 0 1536097834

00:50

5-Сен-18

Мультфильмы 2016-2018 (Новинки мультфильмов) ·%· Разочарование / Disenchantment [01x01-05 из 10] (2018) WEBRip | Good People Galfimbul 19441622301.81 GB 0 0 1536084890

21:14

4-Сен-18

Мультфильмы 2016-2018 (Новинки мультфильмов) ·%· Разочарование / Disenchantment [S01] (2018) WEB-DL 1080p | Jaskier Galfimbul 1110865451310.35 GB 0 0 1535447443

12:10

28-Авг-18

Мультфильмы 2016-2018 (Новинки мультфильмов) ·%· Разочарование / Disenchantment [01x01 из 10] (2018) WEBRip 1080p | VO-production, Jaskier, AlexFilm Galfimbul 17400724781.62 GB 0 0 1535370104

14:41

27-Авг-18

Мультфильмы 2016-2018 (Новинки мультфильмов) ·%· Разочарование / Disenchantment [01x01-05 из 10] (2018) WEB-DLRip | Jaskier Galfimbul 20879605761.94 GB 0 0 1535280859

13:54

26-Авг-18

Мультфильмы 2016-2018 (Новинки мультфильмов) ·%· Разочарование / Disenchantment [01x01-05 из 10] (2018) WEB-DL 720p | Jaskier Galfimbul 37213359663.47 GB 0 0 1535280845

13:54

26-Авг-18

Мультфильмы 2016-2018 (Новинки мультфильмов) ·%· Разочарование / Disenchantment [01x01-05 из 10] (2018) WEBRip 720p | NewStudio Galfimbul 40119974153.74 GB 0 0 1534942840

16:00

22-Авг-18

Мультфильмы 2016-2018 (Новинки мультфильмов) ·%· Разочарование / Disenchantment [S01] (2018) WEBRip | ColdFilm Galfimbul 26785821542.49 GB 0 0 1534659822

09:23

19-Авг-18

Мультфильмы 2016-2018 (Новинки мультфильмов) ·%· Разочарование / Disenchantment [01x01-02 из 10] (2018) WEBRip | OMSKBIRD Galfimbul 930885632888 MB 0 0 1534572615

09:10

18-Авг-18

Еще никто не оставлял запись к записи скачать торрент Разочарование Disenchantment . Будь первым!

!Обратная связь