Скачать через торрент Суперсемейка 2 Incredibles 2 Фильм бесплатно в хорошем качестве torrent

Скачивайте на UnionPeer.org фильмы через торрент без регистрации. Новинки кино в хорошем качестве через торрент. На UnionPeer.org можно скачать через торрент фильмы 2014 и 2015 годов. Самые новые фильмы.

Скачать торрент Суперсемейка 2 Incredibles 2 бесплатно через .torrent фильм мультфильм сериал

Статистика раздачи
Размер:  2.49 GB   |    Зарегистрирован:  3 месяца 20 дней   |    .torrent скачан:  303 раза   |   
Раздают:  1  
   
загрузка...
 
Автор Сообщение

Galfimbul

avatar Galfimbul


Год выхода: 2018
Наименование: Суперсемейка 2
Оригинальное наименование: Incredibles 2
Страна: США
Жанр: мультфильм, фантастика, боевик, комедия, приключения, семейный
Режиссер постановщик: Брэд Бёрд
В главных ролях: Крэйг Т. Нельсон, Холли Хантер, Сара Вауэлл, Хак Милнер, Кэтрин Кинер, Илай Фучиле, Боб Оденкёрк, Сэмюэл Л. Джексон, Майкл Бёрд, София Буш

О фильме: После событий первой части суперсемейка пользуется повышенным вниманием со стороны журналистов. Неожиданно оказалось, что обаятельная Миссис Исключительная гораздо лучше смотрится на экране телевизора, чем её муж. Мистеру Исключительному все чаще приходится сидеть дома и приглядывать за детьми, у каждого из которых есть свои причины быть недовольным собственными суперспособностями. Однако семейным проблемам предстоит отступить на второй план, когда окажется, что спокойствию Суперсемейки угрожает новый могущественный враг.



Файл
Качество: TS 720p
Видео данные: MKV, 1280x530 (2.40:1), 23.976 fps, 3100 Кбит/с
Аудио данные: AAC, 2 ch, 192 Кбит/с
Перевод: Любительский многоголосый (GreenРай Studio)
Продолжительность: 01:48:08

Семпл
General
Unique ID : 193273529549680746106973344049157742294 (0x916720B79CF69D586B8A07D8F3F19ED6)
Complete name : E:ГРИНРАЙIncredibles.2.2018.P.TS.720p.mkv
Format : Matroska
Format version : Version 4 / Version 2
File size : 2.49 GiB
Duration : 1 h 48 min
Overall bit rate : 3 292 kb/s
Encoded date : UTC 2018-07-26 16:34:07
Writing application : mkvmerge v25.0.0 ('Prog Noir') 64-bit
Writing library : libebml v1.3.6 + libmatroska v1.4.9

Video
ID : 1
Format : AVC
Format/Info : Advanced Video Codec
Format profile : High@L3.1
Format settings : CABAC / 1 Ref Frames
Format settings, CABAC : Yes
Format settings, RefFrames : 1 frame
Format settings, GOP : M=1, N=30
Codec ID : V_MPEG4/ISO/AVC
Duration : 1 h 48 min
Bit rate : 3 100 kb/s
Width : 1 280 pixels
Height : 530 pixels
Display aspect ratio : 2.40:1
Frame rate mode : Constant
Frame rate : 23.976 (24000/1001) FPS
Color space : YUV
Chroma subsampling : 4:2:0
Bit depth : 8 bits
Scan type : Progressive
Bits/(Pixel*Frame) : 0.191
Stream size : 2.34 GiB (94%)
Language : English
Default : Yes
Forced : No

Audio
ID : 2
Format : AAC
Format/Info : Advanced Audio Codec
Format profile : LC
Codec ID : A_AAC-2
Duration : 1 h 48 min
Bit rate : 192 kb/s
Channel(s) : 2 channels
Channel positions : Front: L R
Sampling rate : 48.0 kHz
Frame rate : 46.875 FPS (1024 SPF)
Compression mode : Lossy
Stream size : 147 MiB (6%)
Language : English
Default : Yes
Forced : No
Внимание, имеется видео и аудио реклама от спонсора показа Релиз от:
Источник http://BlaTor.org

Трекер:  [ 27-Июл-2018 09:10 ]

  

Скачать .torrent

Размер .torrent файла 13 KB


Размер: 2.49 GB
Хэш (hash) релиза: 559be000f90c6305051c31c08dc3e94b27a7f706
Подписка на обновления:

Торренты, похожие на Суперсемейка 2 Incredibles 2 скачать торрент

Форум Название Автор Размер S L Добавлен
Мультфильмы 2016-2018 (Новинки мультфильмов) ·%· Суперсемейка 2 / Incredibles 2 (2018) UHD BDRemux 2160p от селезень | 4K | HDR | iTunes Galfimbul 4369982613940.7 GB 0 0 1541762501

14:21

9-Ноя-18

Мультфильмы 2016-2018 (Новинки мультфильмов) ·%· Суперсемейка 2 / Incredibles 2 (2018) HDRip от Scarabey | iTunes Galfimbul 14976327681.39 GB 0 0 1541438551

20:22

5-Ноя-18

Зарубежные фильмы 2016-2018 (Новинки зарубежного кино) ·%· Суперсемейка 2 / Incredibles 2 (2018) BDRip-AVC от HELLYWOOD | iTunes Galfimbul 15149514831.41 GB 0 0 1541348504

19:21

4-Ноя-18

Мультфильмы 2016-2018 (Новинки мультфильмов) ·%· Суперсемейка 2 / Incredibles 2 (2018) BDRip 1080p от qqss44 & MegaPeer | iTunes Galfimbul 56434809735.26 GB 0 0 1541328098

13:41

4-Ноя-18

Мультфильмы 2016-2018 (Новинки мультфильмов) ·%· Суперсемейка 2 / Incredibles 2 (2018) BDRip от ExKinoRay | iTunes Galfimbul 22864515842.13 GB 0 0 1541317923

10:52

4-Ноя-18

Мультфильмы 2016-2018 (Новинки мультфильмов) ·%· Суперсемейка 2 / Incredibles 2 (2018) BDRip от ExKinoRay | iTunes Galfimbul 15149492921.41 GB 0 0 1541315678

10:14

4-Ноя-18

Мультфильмы 2016-2018 (Новинки мультфильмов) ·%· Суперсемейка 2 / Incredibles 2 (2018) HDRip от Kaztorrents | КПК | iTunes Galfimbul 470046480448 MB 0 0 1541260217

18:50

3-Ноя-18

Мультфильмы 2016-2018 (Новинки мультфильмов) ·%· Суперсемейка 2 / Incredibles 2 (2018) BDRip 1080p от Ash61 | 3D-Video | halfOU | iTunes Galfimbul 81477977697.59 GB 0 0 1541256196

17:43

3-Ноя-18

Мультфильмы 2016-2018 (Новинки мультфильмов) ·%· Суперсемейка 2 / Incredibles 2 (2018) BDRip-HEVC 1080p от sm0tJay | iTunes Galfimbul 55643080195.18 GB 0 0 1541235838

12:03

3-Ноя-18

Мультфильмы 2016-2018 (Новинки мультфильмов) ·%· Суперсемейка 2 / Incredibles 2 (2018) BDRip 1080p от селезень | iTunes Galfimbul 90112400398.39 GB 0 0 1541139013

09:10

2-Ноя-18

Мультфильмы 2016-2018 (Новинки мультфильмов) ·%· Суперсемейка 2 / Incredibles 2 (2018) BDRemux 1080p от селезень | iTunes Galfimbul 2284333713921.27 GB 0 0 1541116818

03:00

2-Ноя-18

Мультфильмы 2016-2018 (Новинки мультфильмов) ·%· Суперсемейка 2 / Incredibles 2 (2018) WEB-DLRip-AVC от ExKinoRay | iTunes Galfimbul 23155457032.16 GB 0 0 1540528039

07:27

26-Окт-18

Мультфильмы 2016-2018 (Новинки мультфильмов) ·%· Суперсемейка 2 / Incredibles 2 (2018) WEB-DLRip от MegaPeer | iTunes Galfimbul 15687211251.46 GB 0 0 1540497234

22:53

25-Окт-18

Мультфильмы 2016-2018 (Новинки мультфильмов) ·%· Суперсемейка 2 / Incredibles 2 (2018) WEB-DL 1080p от TeamHD | iTunes Galfimbul 46599733204.34 GB 0 0 1540494901

22:15

25-Окт-18

Мультфильмы 2016-2018 (Новинки мультфильмов) ·%· Суперсемейка 2 / Incredibles 2 (2018) TS | GreenРай Studio Galfimbul 14737422821.37 GB 0 0 1532663412

06:50

27-Июл-18

Мультфильмы до 2016 ·· Суперсемейка / The Incredibles (Брэд Бёрд / Brad Bird) [2004 г., мультфильм, фэнтези, боевик, приключения, семейный, 2 х DVD9] Лицензионное издание от Видеосервиса Captain Claw 1275523686411.88 GB 0 0 1293315541

01:19

26-Дек-10

Еще никто не оставлял запись к записи скачать торрент Суперсемейка 2 Incredibles 2 . Будь первым!

!Обратная связь