Скачать через торрент Гибрид Hybrid Фильм бесплатно в хорошем качестве torrent

Скачивайте на UnionPeer.org фильмы через торрент без регистрации. Новинки кино в хорошем качестве через торрент. На UnionPeer.org можно скачать через торрент фильмы 2014 и 2015 годов. Самые новые фильмы.

Скачать торрент Гибрид Hybrid бесплатно через .torrent фильм мультфильм сериал

Статистика раздачи
Размер:  4.66 GB   |    Зарегистрирован:  7 лет   |    .torrent скачан:  46 раз   |   
Раздают:  1  
   
загрузка...
 
Автор Сообщение

L


Гибрид / Hybrid / Super Hybrid
Год выпуска: 2010
Страна: США, Германия
Выпущено: Stallion Media, Studio 407, TADORA Filmproduktions
Жанр: ужасы, триллер
Продолжительность: 01:34:36
Перевод: Профессиональный (многоголосый закадровый) | R5
Оригинальная аудиодорожка: английская
Субтитры: английские
Режиссер: Эрик Валетт
Бюджет: $13 000 000
В ролях: Шеннон Бекнер (Tilda), Одед Фер (Ray), Райан Кеннеди (Bobby), Мелани Папалиа (Maria), Эдриан Дорваль (Gordy), Дункан Фишер (Teenager), Джош Стрейт (Al), Кент Нолан (Teenager), Тим МакГрат (Oliver)
Описание: В Чикагском полицейском гараже стоит разбитая машина, которую привезли после дорожной аварии. Внутри машины таится нечто, что управляет ею и преображает в любой транспорт в мгновение ока.
Заступившие на дежурство механики и представить себе не могли, что такое бывает, а обнаружили странный автомобиль только тогда, когда один из механиков погиб! Начальник смены решает поймать машину в ловушку и сообщить о сенсации всему миру. Начинается игра в кошки-мышки, но механики не знают, что в этой игре мышки - именно они!
Качество: BDRip 720p
Формат: MKV
Видео кодек: H.264
Аудио кодек: AC3, DTS
Видео: 1280x546 at 23.976 fps, H.264, 5103 Kb/s
Аудио #1: Russian: 48 kHz, AC3, 3/2 (L,C,R,l,r) + LFE ch, 448.00 kbps avg | MVO
Аудио #2: English: 48 kHz, DTS, 3/2 (L,C,R,l,r) + LFE ch, 1510.00 kbps avg | Оригинал

General
Unique ID : 203148298231006130711070457160653420415 (0x98D4F066FC64CCB2B9593688A29D377F)
Complete name : D:\Фильмы\Гибрид\Gibrid.2010.BDRip.720p.mkv
Format : Matroska
File size : 4.66 GiB
Duration : 1h 34mn
Overall bit rate : 7 053 Kbps
Movie name : Hybrid (2011) - Release for Uniongang.tv
Encoded date : UTC 2011-11-12 12:47:08
Writing application : mkvmerge v4.7.0 ('Just Like You Imagined') сборка от Apr 21 2011 01:13:14
Writing library : libebml v1.2.0 + libmatroska v1.1.0

Video
ID : 1
Format : AVC
Format/Info : Advanced Video Codec
Format profile : High@L4.1
Format settings, CABAC : Yes
Format settings, ReFrames : 12 frames
Codec ID : V_MPEG4/ISO/AVC
Duration : 1h 34mn
Bit rate : 5 103 Kbps
Width : 1 280 pixels
Height : 546 pixels
Display aspect ratio : 2.35:1
Frame rate : 23.976 fps
Color space : YUV
Chroma subsampling : 4:2:0
Bit depth : 8 bits
Scan type : Progressive
Bits/(Pixel*Frame) : 0.305
Stream size : 3.28 GiB (70%)
Writing library : x264 core 114 r1913 5fd3dce
Encoding settings : cabac=1 / ref=12 / deblock=1:-3:-3 / analyse=0x3:0x113 / me=umh / subme=10 / psy=1 / psy_rd=1.10:0.02 / mixed_ref=1 / me_range=32 / chroma_me=1 / trellis=2 / 8x8dct=1 / cqm=0 / deadzone=21,11 / fast_pskip=0 / chroma_qp_offset=-4 / threads=6 / sliced_threads=0 / nr=0 / decimate=0 / interlaced=0 / constrained_intra=0 / bframes=6 / b_pyramid=2 / b_adapt=2 / b_bias=0 / direct=3 / weightb=1 / open_gop=0 / weightp=2 / keyint=250 / keyint_min=23 / scenecut=40 / intra_refresh=0 / rc_lookahead=60 / rc=2pass / mbtree=1 / bitrate=5103 / ratetol=1.0 / qcomp=0.60 / qpmin=0 / qpmax=69 / qpstep=4 / cplxblur=20.0 / qblur=0.5 / ip_ratio=1.40 / aq=2:0.80
Language : English

Audio #1
ID : 2
Format : AC-3
Format/Info : Audio Coding 3
Mode extension : CM (complete main)
Codec ID : A_AC3
Duration : 1h 34mn
Bit rate mode : Constant
Bit rate : 448 Kbps
Channel(s) : 6 channels
Channel positions : Front: L C R, Side: L R, LFE
Sampling rate : 48.0 KHz
Bit depth : 16 bits
Compression mode : Lossy
Stream size : 303 MiB (6%)
Title : DD 5.1 @ 448 Kbps - MVO, R5
Language : Russian

Audio #2
ID : 3
Format : DTS
Format/Info : Digital Theater Systems
Codec ID : A_DTS
Duration : 1h 34mn
Bit rate mode : Constant
Bit rate : 1 510 Kbps
Channel(s) : 6 channels
Channel positions : Front: L C R, Side: L R, LFE
Sampling rate : 48.0 KHz
Bit depth : 16 bits
Compression mode : Lossy
Delay relative to video : 11ms
Stream size : 1 022 MiB (21%)
Title : DTS 5.1 @ 1536 Kbps
Language : English

Text
ID : 4
Format : UTF-8
Codec ID : S_TEXT/UTF8
Codec ID/Info : UTF-8 Plain Text
Language : English


Трекер:  [ 12-Ноя-2011 19:15 ]

  

Скачать .torrent

Размер .torrent файла 23 KB


Размер: 4.66 GB
Хэш (hash) релиза: 2813e0bc0a64d86d52b09f49626336496e7ae134
Подписка на обновления:

Еще никто не оставлял запись к записи скачать торрент Гибрид Hybrid . Будь первым!

!Обратная связь