Скачать через торрент Гриффины Family Guy Фильм бесплатно в хорошем качестве torrent

Скачивайте на UnionPeer.org фильмы через торрент без регистрации. Новинки кино в хорошем качестве через торрент. На UnionPeer.org можно скачать через торрент фильмы 2014 и 2015 годов. Самые новые фильмы.

Скачать торрент Гриффины Family Guy бесплатно через .torrent фильм мультфильм сериал

Статистика раздачи
Размер:  17.73 GB   |    Зарегистрирован:  8 месяцев   |    .torrent скачан:  36 раз   |   
Раздают:  1  
   
загрузка...
 
Автор Сообщение

Galfimbul

avatar Galfimbul


Гриффины / Family Guy

Год выпуска: 2015
Страна: США
Студия: Twentieth Century Fox Film Corporation
Жанр: мультфильм, ситком, чёрный юмор, буффонада, комедия, пародия
Продолжительность серии: ~22 минуты (серия)
Перевод:

Профессиональный (многоголосый закадровый) студия "Jaskier" |Юрий Маляров, Никита Прозоровский, Александр Воронов (1-4 серии), Людмила Ильина|
Профессиональный (многоголосый закадровый) студия "ZoneVision" по заказу |Олег Форостенко, Василий Зотов, Людмила Ильина|
Профессиональный (многоголосый закадровый) Filiza Studio |Света, darkFIL, Михаил Литвин (Little) и другие| (В 13 серии присутствует ненормативная лексика)
Режиссёр: Сет МакФарлейн / Seth MacFarlane
Роли озвучивали: Сет МакФарлейн, Алекс Борштейн, Сет Грин, Мила Кунис, Майк Генри, Джон Винер, Дэнни Смит, Патрик Варбертон, Ральф Гармен, Алек Салкин и другие.
Описание: "Гриффины" (Family Guy) - анимационное ТВ-Шоу, созданное Сетом МакФерлайном (Seth MacFarlane) для телеканала FOX. Как нетрудно догадаться, главными героями шоу является семейка Гриффинов: тупой, но полный сумашедших идей, составляющих львиную долю шуток сериала, отец семейства Питер; его любящя и терпеливая жена Лойс, всеми силами пытающаяся превратить Гриффинов в нормальную семью; их интеллектуально развитый не по годам, вынашивающий идею мирового господства младший сын Стьюи; дочь-ботаник, обречённая из-за этого на одиночество и непонимание как в школе так и дома, Мэг; и 13-ти летний отсталый в развитии лет на 10, сын Крис. Также полноценным членом семьи является пёс Брайан - склонный к меланхолии эстет, спокойно наблюдающий с бокалом вина в лапе над приключениями Питера и остальных членов семьи (и это при всём притом, что остальные собаки в сериале не являются очеловеченными).
РЕЛИЗ ОТ: V.SERIJ2013
Спасибо #Antisnl#, Beer kolesik Drinkers за запись звука с т\к 2x2 и v.serij2013 (т.е., мне) за сведение.
Качество: WEB-DL 1080p
Формат: MKV
Видео кодек: H.264
Аудио кодек: AC3
Видео: H.264, 1920x1080 (16:9), 23.976 fps, ~4179 kbps, 0.084 bit/pixel
Аудио:

русская |Jaskier|: AC3, 48 kHz, 2 ch, 192 kbps
русская |2x2|: AC3, 48 kHz, 2 ch, 192 kbps
русская |Filiza Studio (1-4 серии)|: AC3, 48 kHz, 2 ch, 192 kbps
русская |Filiza Studio (5-13 серии)|: AC3, 48 kHz, 6 ch, 384 kbps
английская |Оригинал|: AC3, 48 kHz, 6 ch, 384 kbps
английская |Оригинал / Без цензуры (13 серия)|: AC3, 48 kHz, 6 ch, 384 kbps

Субтитры: русские (1-12 серии), английские
Сэмпл \ Все раздачи сериала \ Кинопоиск
01. Pilling Them Softly
02. Papa Has a Rollin Son
03. Guy Robot
04. Peternormal Activity
05. Peter Chris & Brian
06. Peter's Sister
07. Hot Pocket-Dial
08. Brokeback Swanson
09. A Shot in the Dark
10. Candy Quahog Marshmallow
11. The Peanut Butter Kid
12. Scammed Yankees
13. An App a Day
14. Underage Peter
15. A Lot Going On Upstairs
16. The Heartbreak Dog
17. Take a Letter
18. The New Adventures of Old Tom
19. Run Chris Run
20. Road to India
General
Unique ID                      : 53110080042085024543715016107341204692 (0x27F4A11D1800386E7E9E8BADEFDD4CD4)
Complete name                  : E:\Video\HD\Family.Guy.S14.1080p.WEB-DL.3xRus.Eng-v.serij2013\Family.Guy.S14E01.Pilling.Them.Softly.1080p.WEB-DL.3xRus.Eng-v.serij2013.mkv
Format                         : Matroska
Format version                 : Version 4 / Version 2
File size                      : 811 MiB
Duration                       : 21mn 37s
Overall bit rate               : 5 244 Kbps
Encoded date                   : UTC 2018-03-08 15:21:19
Writing application            : mkvmerge v20.0.0 ('I Am The Sun') 32-bit
Writing library                : libebml v1.3.5 + libmatroska v1.4.8
DURATION                       : 00:20:32.958000000
NUMBER_OF_FRAMES               : 499
NUMBER_OF_BYTES                : 30986
_STATISTICS_WRITING_APP        : mkvmerge v20.0.0 ('I Am The Sun') 32-bit
_STATISTICS_WRITING_DATE_UTC   : 2018-03-08 15:21:19
_STATISTICS_TAGS               : BPS DURATION NUMBER_OF_FRAMES NUMBER_OF_BYTES

Video
ID                             : 1
Format                         : AVC
Format/Info                    : Advanced Video Codec
Format profile                 : High@L4.0
Format settings, CABAC         : Yes
Format settings, ReFrames      : 4 frames
Codec ID                       : V_MPEG4/ISO/AVC
Duration                       : 21mn 37s
Bit rate                       : 4 179 Kbps
Width                          : 1 920 pixels
Height                         : 1 080 pixels
Display aspect ratio           : 16:9
Frame rate mode                : Constant
Frame rate                     : 23.976 fps
Color space                    : YUV
Chroma subsampling             : 4:2:0
Bit depth                      : 8 bits
Scan type                      : Progressive
Bits/(Pixel*Frame)             : 0.084
Stream size                    : 646 MiB (80%)
Language                       : English
Default                        : Yes
Forced                         : No
Color primaries                : BT.709
Transfer characteristics       : BT.709
Matrix coefficients            : BT.709
Color range                    : Limited

Audio #1
ID                             : 2
Format                         : AC-3
Format/Info                    : Audio Coding 3
Mode extension                 : CM (complete main)
Format settings, Endianness    : Big
Codec ID                       : A_AC3
Duration                       : 21mn 37s
Bit rate mode                  : Constant
Bit rate                       : 192 Kbps
Channel(s)                     : 2 channels
Channel positions              : Front: L R
Sampling rate                  : 48.0 KHz
Bit depth                      : 16 bits
Compression mode               : Lossy
Stream size                    : 29.7 MiB (4%)
Title                          : MVO (Jaskier)
Language                       : Russian
Default                        : Yes
Forced                         : No

Audio #2
ID                             : 3
Format                         : AC-3
Format/Info                    : Audio Coding 3
Mode extension                 : CM (complete main)
Format settings, Endianness    : Big
Codec ID                       : A_AC3
Duration                       : 21mn 37s
Bit rate mode                  : Constant
Bit rate                       : 192 Kbps
Channel(s)                     : 2 channels
Channel positions              : Front: L R
Sampling rate                  : 48.0 KHz
Bit depth                      : 16 bits
Compression mode               : Lossy
Stream size                    : 29.7 MiB (4%)
Title                          : MVO (2x2)
Language                       : Russian
Default                        : No
Forced                         : No

Audio #3
ID                             : 4
Format                         : AC-3
Format/Info                    : Audio Coding 3
Mode extension                 : CM (complete main)
Format settings, Endianness    : Big
Codec ID                       : A_AC3
Duration                       : 21mn 37s
Bit rate mode                  : Constant
Bit rate                       : 192 Kbps
Channel(s)                     : 2 channels
Channel positions              : Front: L R
Sampling rate                  : 48.0 KHz
Bit depth                      : 16 bits
Compression mode               : Lossy
Stream size                    : 29.7 MiB (4%)
Title                          : MVO (Filiza Studio)
Language                       : Russian
Default                        : No
Forced                         : No

Audio #4
ID                             : 5
Format                         : AC-3
Format/Info                    : Audio Coding 3
Mode extension                 : CM (complete main)
Format settings, Endianness    : Big
Codec ID                       : A_AC3
Duration                       : 21mn 37s
Bit rate mode                  : Constant
Bit rate                       : 384 Kbps
Channel(s)                     : 6 channels
Channel positions              : Front: L C R, Side: L R, LFE
Sampling rate                  : 48.0 KHz
Bit depth                      : 16 bits
Compression mode               : Lossy
Delay relative to video        : 29ms
Stream size                    : 59.4 MiB (7%)
Title                          : Original
Language                       : English
Default                        : No
Forced                         : No

Text #1
ID                             : 6
Format                         : UTF-8
Codec ID                       : S_TEXT/UTF8
Codec ID/Info                  : UTF-8 Plain Text
Title                          : Full (Notabenoid)
Language                       : Russian
Default                        : No
Forced                         : No

Text #2
ID                             : 7
Format                         : UTF-8
Codec ID                       : S_TEXT/UTF8
Codec ID/Info                  : UTF-8 Plain Text
Title                          : Full (SDH)
Language                       : English
Default                        : No
Forced                         : No



Трекер:  [ 09-Мар-2018 16:24 ]

  

Скачать .torrent

Размер .torrent файла 47 KB


Размер: 17.73 GB
Хэш (hash) релиза: bdccc8f44401673cf484788db25d708c9ae2a98c
Подписка на обновления:

Еще никто не оставлял запись к записи скачать торрент Гриффины Family Guy . Будь первым!

!Обратная связь