Скачать через торрент Гриффины Family Guy Фильм бесплатно в хорошем качестве torrent

Скачивайте на UnionPeer.org фильмы через торрент без регистрации. Новинки кино в хорошем качестве через торрент. На UnionPeer.org можно скачать через торрент фильмы 2014 и 2015 годов. Самые новые фильмы.

Скачать торрент Гриффины Family Guy бесплатно через .torrent фильм мультфильм сериал

Статистика раздачи
Размер:  644 MB   |    Зарегистрирован:  10 месяцев   |    .torrent скачан:  60 раз   |   
Раздают:  1  
   
загрузка...
 
Автор Сообщение

Galfimbul

avatar Galfimbul


Гриффины / Family Guy

Страна: США
Жанр: Ситком, чёрный юмор, буффонада, комедия, пародия
Продолжительность серии: 22 мин.
Год выпуска: 2017
Перевод: Любительский (многоголосый закадровый)
Русские субтитры: нет

Режиссёр: Сет МакФарлейн / Seth MacFarlane
Описание: "Гриффины" (Family Guy) - анимационное ТВ-Шоу, созданное Сетом МакФарлейном (Seth MacFarlane) для телеканала FOX. Как нетрудно догадаться, главными героями шоу является семейка Гриффинов: тупой, но полный сумашедших идей, составляющих львиную долю шуток сериала, отец семейства Питер; его любящя и терпеливая жена Лойс, всеми силами пытающаяся превратить Гриффинов в нормальную семью; их интеллектуально развитый не по годам, вынашивающий идею мирового господства младший сын Стьюи; дочь-ботаник, обречённая из-за этого на одиночество и непонимание как в школе так и дома, Мэг; и 13-ти летний отсталый в развитии лет на 10, сын Крис. Также полноценным членом семьи является пёс Брайн - склонный к меланхолии эстет, спокойно наблюдающий с бокалом вина в лапе над приключениями Питера и остальных членов семьи (и это при всём притом, что остальные собаки в сериале не являются очеловеченными).

Озвучка: Озвучено студией "Черный Баклажан"

Качество: WEB-DL 1080p
Формат: MKV
Видео: MPEG-4 AVC / ~ 3200 kbps / 1920:1080p / 23.976 fps / 16:9 / ~ 0.064 bit/pixel / High Level
Аудио:
Русский: / Dolby Digital 2.0 / 44 kHz / 256 kbps
English: / Dolby Digital 2.0 / 48 kHz / 192 kbps
Субтитры: отсутствуют
ОбщееУникальный идентификатор : 105564396280328563928144097369299858214 (0x4F6AF6935748BCD999030E39AA8FB326)Полное имя : E:\ЧерныйБаклажан\family.guy.s16e09.1080p.Черный.Баклажан.mkvФормат : MatroskaВерсия формата : Version 4 / Version 2Размер файла : 644 МбайтПродолжительность : 21 м. 36 с.Общий поток : 4169 Кбит/секДата кодирования : UTC 2017-12-20 17:36:29Программа кодирования : mkvmerge v19.0.0 ('Brave Captain') 32-bitБиблиотека кодирования : libebml v1.3.5 + libmatroska v1.4.8

ВидеоИдентификатор : 1Формат : AVCФормат/Информация : Advanced Video CodecПрофиль формата : High@L4Настройки формата : CABAC / 2 Ref FramesПараметр CABAC формата : ДаПараметр RefFrames формата : 2 кадраИдентификатор кодека : V_MPEG4/ISO/AVCПродолжительность : 21 м. 35 с.Битрейт : 3784 Кбит/секНоминальный битрейт : 4920 Кбит/секШирина : 1920 пикселейВысота : 1080 пикселейСоотношение сторон : 16:9Режим частоты кадров : ПостоянныйЧастота кадров : 23,976 (24000/1001) кадра/секЧастота кадров в оригинале : 24,000 кадра/секЦветовое пространство : YUVСубдискретизация насыщенности : 4:2:0Битовая глубина : 8 битТип развёртки : ПрогрессивнаяБит/(Пиксели*Кадры) : 0.076Размер потока : 585 Мбайт (91%)Библиотека кодирования : x264 core 148 r2579M 73ae2d1Настройки программы : cabac=1 / ref=2 / deblock=1:0:0 / analyse=0x3:0x113 / me=hex / subme=2 / psy=1 / psy_rd=1.00:0.00 / mixed_ref=0 / me_range=16 / chroma_me=1 / trellis=0 / 8x8dct=1 / cqm=0 / deadzone=21,11 / fast_pskip=1 / chroma_qp_offset=0 / threads=1 / lookahead_threads=1 / sliced_threads=0 / nr=250 / decimate=1 / interlaced=0 / bluray_compat=0 / stitchable=1 / constrained_intra=0 / bframes=0 / weightp=1 / keyint=250 / keyint_min=24 / scenecut=40 / intra_refresh=0 / rc_lookahead=10 / rc=2pass / mbtree=1 / bitrate=4920 / ratetol=1.0 / qcomp=0.60 / qpmin=5 / qpmax=69 / qpstep=4 / cplxblur=20.0 / qblur=0.5 / ip_ratio=1.40 / aq=1:1.00Default : ДаForced : Нет

Аудио #1Идентификатор : 2Формат : AACФормат/Информация : Advanced Audio CodecПрофиль формата : LCИдентификатор кодека : A_AAC-2Продолжительность : 21 м. 36 с.Битрейт : 256 Кбит/секКаналы : 2 каналаРасположение каналов : Front: L RЧастота : 44,1 КГцЧастота кадров : 43,066 кадра/сек (1024 SPF)Метод сжатия : С потерямиРазмер потока : 39,6 Мбайт (6%)Default : ДаForced : Да

Аудио #2Идентификатор : 3Формат : AACФормат/Информация : Advanced Audio CodecПрофиль формата : HE-AAC / LCНастройки формата : ImplicitИдентификатор кодека : A_AAC-2Продолжительность : 21 м. 35 с.Битрейт : 127 Кбит/секКаналы : 2 каналаРасположение каналов : Front: L RЧастота : 48,0 КГц / 24,0 КГцЧастота кадров : 23,438 кадра/сек (1024 SPF)Метод сжатия : С потерямиРазмер потока : 19,6 Мбайт (3%)Default : НетForced : Нет

ОбщееУникальный идентификатор : 105564396280328563928144097369299858214 (0x4F6AF6935748BCD999030E39AA8FB326)Полное имя : E:\ЧерныйБаклажан\family.guy.s16e09.1080p.Черный.Баклажан.mkvФормат : MatroskaВерсия формата : Version 4 / Version 2Размер файла : 644 МбайтПродолжительность : 21 м. 36 с.Общий поток : 4169 Кбит/секДата кодирования : UTC 2017-12-20 17:36:29Программа кодирования : mkvmerge v19.0.0 ('Brave Captain') 32-bitБиблиотека кодирования : libebml v1.3.5 + libmatroska v1.4.8

ВидеоИдентификатор : 1Формат : AVCФормат/Информация : Advanced Video CodecПрофиль формата : High@L4Настройки формата : CABAC / 2 Ref FramesПараметр CABAC формата : ДаПараметр RefFrames формата : 2 кадраИдентификатор кодека : V_MPEG4/ISO/AVCПродолжительность : 21 м. 35 с.Битрейт : 3784 Кбит/секНоминальный битрейт : 4920 Кбит/секШирина : 1920 пикселейВысота : 1080 пикселейСоотношение сторон : 16:9Режим частоты кадров : ПостоянныйЧастота кадров : 23,976 (24000/1001) кадра/секЧастота кадров в оригинале : 24,000 кадра/секЦветовое пространство : YUVСубдискретизация насыщенности : 4:2:0Битовая глубина : 8 битТип развёртки : ПрогрессивнаяБит/(Пиксели*Кадры) : 0.076Размер потока : 585 Мбайт (91%)Библиотека кодирования : x264 core 148 r2579M 73ae2d1Настройки программы : cabac=1 / ref=2 / deblock=1:0:0 / analyse=0x3:0x113 / me=hex / subme=2 / psy=1 / psy_rd=1.00:0.00 / mixed_ref=0 / me_range=16 / chroma_me=1 / trellis=0 / 8x8dct=1 / cqm=0 / deadzone=21,11 / fast_pskip=1 / chroma_qp_offset=0 / threads=1 / lookahead_threads=1 / sliced_threads=0 / nr=250 / decimate=1 / interlaced=0 / bluray_compat=0 / stitchable=1 / constrained_intra=0 / bframes=0 / weightp=1 / keyint=250 / keyint_min=24 / scenecut=40 / intra_refresh=0 / rc_lookahead=10 / rc=2pass / mbtree=1 / bitrate=4920 / ratetol=1.0 / qcomp=0.60 / qpmin=5 / qpmax=69 / qpstep=4 / cplxblur=20.0 / qblur=0.5 / ip_ratio=1.40 / aq=1:1.00Default : ДаForced : Нет

Аудио #1Идентификатор : 2Формат : AACФормат/Информация : Advanced Audio CodecПрофиль формата : LCИдентификатор кодека : A_AAC-2Продолжительность : 21 м. 36 с.Битрейт : 256 Кбит/секКаналы : 2 каналаРасположение каналов : Front: L RЧастота : 44,1 КГцЧастота кадров : 43,066 кадра/сек (1024 SPF)Метод сжатия : С потерямиРазмер потока : 39,6 Мбайт (6%)Default : ДаForced : Да

Аудио #2Идентификатор : 3Формат : AACФормат/Информация : Advanced Audio CodecПрофиль формата : HE-AAC / LCНастройки формата : ImplicitИдентификатор кодека : A_AAC-2Продолжительность : 21 м. 35 с.Битрейт : 127 Кбит/секКаналы : 2 каналаРасположение каналов : Front: L RЧастота : 48,0 КГц / 24,0 КГцЧастота кадров : 23,438 кадра/сек (1024 SPF)Метод сжатия : С потерямиРазмер потока : 19,6 Мбайт (3%)Default : НетForced : Нет


Трекер:  [ 22-Дек-2017 11:54 ]

  

Скачать .torrent

Размер .torrent файла 13 KB


Размер: 644 MB
Хэш (hash) релиза: 1b99b0479545400ae25664d610a9207895ff59ff
Подписка на обновления:

Еще никто не оставлял запись к записи скачать торрент Гриффины Family Guy . Будь первым!

!Обратная связь