Скачать через торрент Гриффины Family Guy Фильм бесплатно в хорошем качестве torrent

Скачивайте на UnionPeer.org фильмы через торрент без регистрации. Новинки кино в хорошем качестве через торрент. На UnionPeer.org можно скачать через торрент фильмы 2014 и 2015 годов. Самые новые фильмы.

Скачать торрент Гриффины Family Guy бесплатно через .torrent фильм мультфильм сериал

Статистика раздачи
Размер:  1.7 GB   |    Зарегистрирован:  1 год   |    .torrent скачан:  22 раза   |   
Раздают:  1  
   
загрузка...
 
Автор Сообщение

Galfimbul

avatar Galfimbul


Гриффины / Family Guy

Страна: США
Жанр: Комедия, Пародия, Сатира
Продолжительность серии: ~20 минут
Год выпуска: 2015-2016
Перевод: Профессиональный (многоголосый закадровый)
Русские субтитры: нет

Режиссёр: Сет МакФарлейн / Seth MacFarlane
Роли озвучивали: Олег Форостенко - Питер, Брайан, Кливленд и другие.
Василий Зотов - Крис, Стьюи, Куагмир и другие.
Людмила Ильина - все женские и детские роли.

Описание: "Гриффины" - анимационное ТВ-шоу, созданное Сетом МакФарлейном для телеканала FOX. Как нетрудно догадаться, главными героями шоу является семейка Гриффинов: тупой, но полный сумасшедших идей, составляющих львиную долю шуток сериала, отец семейства Питер; его любящая и терпеливая жена Лоис, всеми силами пытающаяся превратить Гриффинов в нормальную семью; их интеллектуально развитый не по годам, вынашивающий идею мирового господства младший сын Стьюи; дочь-ботаник, обречённая из-за этого на одиночество и непонимание как в школе так и дома, Мэг; и 13-ти летний отсталый в развитии лет на 10, сын Крис. Также полноценным членом семьи является пёс Брайан - склонный к меланхолии эстет, спокойно наблюдающий с бокалом вина в лапе над приключениями Питера и остальных членов семьи (и это при всём притом, что остальные собаки в сериале не являются очеловеченными).

Список серий:
01. Pilling Them Softly (Отпилюль их нежно)
02. Papa Has a Rollin' Son (Папа может прокатить сыночка)
03. Guy, Robot (Парень, робот)
05. Peter, Chris, & Brian (Питер, Крис и Брайан)
06. Peter's Sister (Сестра Питера)
09. A Shot in the Dark (Выстрел в темноте)

Доп. информация: Вот мы и дождались: 14 сезон мультсериала "Гриффины" в переводе телеканала 2х2. Вообще-то по идее данный сезон должен был выйти в прошлом году, но премьеру перенесли аж на год позже <img class="smile" src="//static.t-ru.org/smiles/icon_smile.gif" alt=""> Может, из-за выборов в США, может нет... В общем наслаждайтесь! <img class="smile" src="//static.t-ru.org/smiles/icon_smile.gif" alt="">
P. S. На сей раз была проведена внимательная работа с битрейтами и прочими параметрами, чтобы не было того ужаса, что был с моими записями 13 сезона. Полосы обрезаны, картинка почти как в записи, практически без искажений. Надеюсь, вам понравится <img class="smile" src="//static.t-ru.org/smiles/icon_smile.gif" alt="">

Ссылка на предыдущие и альтернативные раздачи:
Качество: SATRip
Формат: AVI
Видео: Xvid, 720х400, 25.00fps, 2000 kbps
Аудио: MPEG Audio Layer 3, 48000Hz, stereo, 192 kbps
Субтитры: отсутствуют
GeneralComplete name : C:\Documents and Settings\Admin\Мои документы\Гриффины 14\01. Pilling Them Softly.aviFormat : AVIFormat/Info : Audio Video InterleaveFile size : 320 MiBDuration : 20mn 39sOverall bit rate : 2 162 KbpsWriting application : Lavf52.61.0

VideoID : 0Format : MPEG-4 VisualFormat profile : Simple@L3Format settings, BVOP : NoFormat settings, QPel : NoFormat settings, GMC : No warppointsFormat settings, Matrix : Default (H.263)Codec ID : XVIDCodec ID/Hint : XviDDuration : 20mn 39sBit rate : 1 957 KbpsWidth : 720 pixelsHeight : 400 pixelsDisplay aspect ratio : 16:9Frame rate : 25.000 fpsColor space : YUVChroma subsampling : 4:2:0Bit depth : 8 bitsScan type : ProgressiveCompression mode : LossyBits/(Pixel*Frame) : 0.272Stream size : 289 MiB (91%)Writing library : XviD 1.2.1 (UTC 2008-12-04)

AudioID : 1Format : MPEG AudioFormat version : Version 1Format profile : Layer 3Mode : Joint stereoMode extension : MS StereoCodec ID : 55Codec ID/Hint : MP3Duration : 20mn 39sBit rate mode : ConstantBit rate : 192 KbpsChannel(s) : 2 channelsSampling rate : 48.0 KHzCompression mode : LossyStream size : 28.4 MiB (9%)Alignment : Aligned on interleavesInterleave, duration : 24 ms (0.60 video frame)


Трекер:  [ 21-Окт-2017 21:24 ]

  

Скачать .torrent

Размер .torrent файла 17 KB


Размер: 1.7 GB
Хэш (hash) релиза: b875e4f61f182d7e4661b49f7cb1da0aad69fea0
Подписка на обновления:

Еще никто не оставлял запись к записи скачать торрент Гриффины Family Guy . Будь первым!

!Обратная связь