Скачать через торрент Гриффины Family Guy Фильм бесплатно в хорошем качестве torrent

Скачивайте на UnionPeer.org фильмы через торрент без регистрации. Новинки кино в хорошем качестве через торрент. На UnionPeer.org можно скачать через торрент фильмы 2014 и 2015 годов. Самые новые фильмы.

Скачать торрент Гриффины Family Guy бесплатно через .torrent фильм мультфильм сериал

Статистика раздачи
Размер:  4.88 GB   |    Зарегистрирован:  1 год 5 месяцев   |    .torrent скачан:  11 раз   |   
Раздают:  1  
   
загрузка...
 
Автор Сообщение

Galfimbul

avatar Galfimbul


Гриффины / Family Guy / 8 Сезон / WEB-DLRip-AVC

Страна: США
Жанр: Мультсериал, комедия, пародия
Сезон (количество): 8
Продолжительность: 00:21:00
Год выпуска: 2009
Перевод: Профессиональный (многоголосый закадровый) -
Русские субтитры: нет

Режиссёр: Сет Макфарлейн

Описание: "Гриффины" (Family Guy) - анимационное ТВ-Шоу, созданное Сетом МакФерлайном (Seth MacFarlane) для телеканала FOX. Как нетрудно догадаться, главными героями шоу является семейка Гриффинов: тупой, но полный сумашедших идей, составляющих львиную долю шуток сериала, отец семейства Питер; его любящя и терпеливая жена Лойс, всеми силами пытающаяся превратить Гриффинов в нормальную семью; их интеллектуально развитый не по годам, вынашивающий идею мирового господства младший сын Стьюи; дочь-ботаник, обречённая из-за этого на одиночество и непонимание как в школе так и дома, Мэг; и 13-ти летний отсталый в развитии лет на 10, сын Крис. Также полноценным членом семьи является пёс Брайн - склонный к меланхолии эстет, спокойно наблюдающий с бокалом вина в лапе над приключениями Питера и остальных членов семьи (и это при всём притом, что остальные собаки в сериале не являются очеловеченными).

Качество: WEB-DLRip
Формат: MKV
Видео: 720 X 544 / 23.976 fps / ~900 kbp/s / 0.12 bit/px
Аудио: AC3 / 5.1 / 48KHz / ~384 - русская
Аудио: AC3 / 5.1 / 48KHz / ~384 - английская
Субтитры: Частичные, надписи

Sample - http://narod.ru/disk/38796585001/0810%20-%20Big%20Man%20on%20Hippocampus%20-%20Sample.mkv.html

Другие раздачи
0801 - Road to the Multiverse
0802 - Family Goy
0803 - Spies Reminiscent of Us
0804 - Brian's Got a Brand New Bag
0805 - Hannah Banana
0806 - Quagmire's Baby
0807 - Jerome is the New Black
0808 - Dog Gone
0809 - Business Guy
0810 - Big Man on Hippocampus
0811 - Dial Meg for Murder
0812 - Extra Large Medium
0813 - Go Stewie Go
0814 - Peter-assment
0815 - Brian Griffin's House of Payne
0816 - April in Quahog
0817 - Brian & Stewie
0818 - Quagmire's Dad
0819 - The Splendid Source
Поправлена 0802
General
Unique ID : 245712093106392128071498205434304997369 (0xB8DA6D83110802578FB14B4685A727F9)
Complete name : D:\Family Guy - Season 8 WEB-DLRip-AVC\0810 - Big Man on Hippocampus.mkv
Format : Matroska
Format version : Version 2
File size : 250 MiB
Duration : 21mn 37s
Overall bit rate : 1 619 Kbps
Movie name : Family guy - 0810 - Big Man on Hippocampus / Релиз - D2T/"Криволапый ювелир"
Encoded date : UTC 2012-01-25 14:49:18
Writing application : mkvmerge v4.0.0 ('The Stars were mine') сборка от Jun 6 2010 16:18:42
Writing library : libebml v1.0.0 + libmatroska v1.0.0

Video
ID : 1
Format : AVC
Format/Info : Advanced Video Codec
Format profile : High@L3.0
Format settings, CABAC : Yes
Format settings, ReFrames : 4 frames
Codec ID : V_MPEG4/ISO/AVC
Duration : 21mn 37s
Bit rate : 818 Kbps
Width : 720 pixels
Height : 544 pixels
Display aspect ratio : 4:3
Frame rate : 23.976 fps
Color space : YUV
Chroma subsampling : 4:2:0
Bit depth : 8 bits
Scan type : Progressive
Bits/(Pixel*Frame) : 0.087
Stream size : 127 MiB (51%)
Writing library : x264 core 116 r2074 2641b9e
Encoding settings : cabac=1 / ref=4 / deblock=1:0:0 / analyse=0x3:0x113 / me=tesa / subme=9 / psy=1 / psy_rd=1.00:0.00 / mixed_ref=1 / me_range=16 / chroma_me=1 / trellis=2 / 8x8dct=1 / cqm=0 / deadzone=21,11 / fast_pskip=1 / chroma_qp_offset=-2 / threads=6 / sliced_threads=0 / nr=0 / decimate=1 / interlaced=0 / bluray_compat=0 / constrained_intra=0 / bframes=4 / b_pyramid=2 / b_adapt=2 / b_bias=0 / direct=3 / weightb=1 / open_gop=0 / weightp=2 / keyint=150 / keyint_min=1 / scenecut=33 / intra_refresh=0 / rc=cqp / mbtree=0 / qp=14 / ip_ratio=1.40 / pb_ratio=1.30 / aq=0
Language : English

Audio #1
ID : 2
Format : AC-3
Format/Info : Audio Coding 3
Mode extension : CM (complete main)
Codec ID : A_AC3
Duration : 21mn 37s
Bit rate mode : Constant
Bit rate : 384 Kbps
Channel(s) : 6 channels
Channel positions : Front: L C R, Side: L R, LFE
Sampling rate : 48.0 KHz
Bit depth : 16 bits
Compression mode : Lossy
Stream size : 59.4 MiB (24%)
Title : FiliZa Studio
Language : Russian

Audio #2
ID : 3
Format : AC-3
Format/Info : Audio Coding 3
Mode extension : CM (complete main)
Codec ID : A_AC3
Duration : 21mn 37s
Bit rate mode : Constant
Bit rate : 384 Kbps
Channel(s) : 6 channels
Channel positions : Front: L C R, Side: L R, LFE
Sampling rate : 48.0 KHz
Bit depth : 16 bits
Compression mode : Lossy
Stream size : 59.4 MiB (24%)
Language : English

Text
ID : 4
Format : UTF-8
Codec ID : S_TEXT/UTF8
Codec ID/Info : UTF-8 Plain Text
Title : (Partial)
Language : Russian
"Криволапый ювелир"
Убрана вся реклама <img class="smile" src="//static.t-ru.org/smiles/icon_smile.gif" alt="">
Гриффины

9 Сезон
WEB-DLRip

AVC / MKV - ...3194108

Американский папа!

4 Сезон
HDTVRip

ASP / AVI - ...2227159
AVC / MKV - ...2227827

5 Сезон
WEB-DLRip

AVC / MKV - ...3205740

6 Сезон
HDTVRip

AVC / MKV - ...3190849


Трекер:  [ 09-Июн-2017 23:54 ]

  

Скачать .torrent

Размер .torrent файла 13 KB


Размер: 4.88 GB
Хэш (hash) релиза: 4c4c171eef5783db61a224248086798fb7acc05d
Подписка на обновления:

Торренты, похожие на Гриффины Family Guy скачать торрент

Форум Название Автор Размер S L Добавлен
Мультсериалы ·· Гриффины / Family Guy / Сезон: 8 / Серии: 1-19 (21) (Seth MacFarlane / Сет Макфарлейн) [2009, Мультсериал, комедия, пародия, WEB-DLRip] MVO - FiLiZa Studio Galfimbul 57479966725.35 GB 0 0 1497051734

02:42

10-Июн-17

Еще никто не оставлял запись к записи скачать торрент Гриффины Family Guy . Будь первым!

!Обратная связь