Скачать через торрент Гриффины Family Guy Фильм бесплатно в хорошем качестве torrent

Скачивайте на UnionPeer.org фильмы через торрент без регистрации. Новинки кино в хорошем качестве через торрент. На UnionPeer.org можно скачать через торрент фильмы 2014 и 2015 годов. Самые новые фильмы.

Скачать торрент Гриффины Family Guy бесплатно через .torrent фильм мультфильм сериал

Статистика раздачи
Размер:  5.35 GB   |    Зарегистрирован:  1 год 5 месяцев   |    .torrent скачан:  14 раз   |   
Раздают:  1  
   
загрузка...
 
Автор Сообщение

Galfimbul

avatar Galfimbul


Гриффины / Family Guy / 8 Сезон / WEB-DLRip

Страна: США
Жанр: Мультсериал, комедия, пародия
Сезон (количество): 8
Продолжительность: 00:21:00
Год выпуска: 2009
Перевод: Профессиональный (многоголосый закадровый) -
Субтитры: нет

Режиссёр: Сет Макфарлейн

Описание: "Гриффины" (Family Guy) - анимационное ТВ-Шоу, созданное Сетом МакФерлайном (Seth MacFarlane) для телеканала FOX. Как нетрудно догадаться, главными героями шоу является семейка Гриффинов: тупой, но полный сумашедших идей, составляющих львиную долю шуток сериала, отец семейства Питер; его любящя и терпеливая жена Лойс, всеми силами пытающаяся превратить Гриффинов в нормальную семью; их интеллектуально развитый не по годам, вынашивающий идею мирового господства младший сын Стьюи; дочь-ботаник, обречённая из-за этого на одиночество и непонимание как в школе так и дома, Мэг; и 13-ти летний отсталый в развитии лет на 10, сын Крис. Также полноценным членом семьи является пёс Брайн - склонный к меланхолии эстет, спокойно наблюдающий с бокалом вина в лапе над приключениями Питера и остальных членов семьи (и это при всём притом, что остальные собаки в сериале не являются очеловеченными).

Качество: WEB-DLRip
Формат: AVI
Видео: 720 X 544 / 23.976 fps / ~900 kbp/s / 0.12 bit/px
Аудио: AC3 / 5.1 / 48KHz / ~384 - русская
Аудио: AC3 / 5.1 / 48KHz / ~384 - английская

Sample - http://narod.ru/disk/38873891001/0804%20-%20Sample.avi.html

Другие раздачи
0801 - Road to the Multiverse
0802 - Family Goy
0803 - Spies Reminiscent of Us
0804 - Brian's Got a Brand New Bag
0805 - Hannah Banana
0806 - Quagmire's Baby
0807 - Jerome is the New Black
0808 - Dog Gone
0809 - Business Guy
0810 - Big Man on Hippocampus
0811 - Dial Meg for Murder
0812 - Extra Large Medium
0813 - Go Stewie Go
0814 - Peter-assment
0815 - Brian Griffin's House of Payne
0816 - April in Quahog
0817 - Brian & Stewie
0818 - Quagmire's Dad
0819 - The Splendid Source
General
Complete name : P:\Сериалы\Family Guy\Family Guy - Season 8 WEB-DLRip\0804 - Brians Got a Brand New Bag.avi
Format : AVI
Format/Info : Audio Video Interleave
File size : 277 MiB
Duration : 21mn 46s
Overall bit rate : 1 779 Kbps
Movie name : Family guy - 0804 - Brians Got a Brand New Bag / Релиз - D2T/"Криволапый ювелир"
Writing application : VirtualDubMod 1.5.10.2 (build 2542/release)
Writing library : VirtualDubMod build 2542/release

Video
ID : 0
Format : MPEG-4 Visual
Format profile : Advanced Simple@L5
Format settings, BVOP : 2
Format settings, QPel : No
Format settings, GMC : No warppoints
Format settings, Matrix : Default (H.263)
Codec ID : XVID
Codec ID/Hint : XviD
Duration : 21mn 46s
Bit rate : 997 Kbps
Width : 720 pixels
Height : 544 pixels
Display aspect ratio : 4:3
Frame rate : 23.976 fps
Color space : YUV
Chroma subsampling : 4:2:0
Bit depth : 8 bits
Scan type : Progressive
Compression mode : Lossy
Bits/(Pixel*Frame) : 0.106
Stream size : 155 MiB (56%)
Writing library : XviD 1.2.1 (UTC 2008-12-04)

Audio #1
ID : 1
Format : AC-3
Format/Info : Audio Coding 3
Mode extension : CM (complete main)
Codec ID : 2000
Duration : 21mn 46s
Bit rate mode : Constant
Bit rate : 384 Kbps
Channel(s) : 6 channels
Channel positions : Front: L C R, Side: L R, LFE
Sampling rate : 48.0 KHz
Bit depth : 16 bits
Compression mode : Lossy
Stream size : 59.8 MiB (22%)
Alignment : Split accross interleaves
Interleave, duration : 42 ms (1.00 video frame)
Interleave, preload duration : 500 ms

Audio #2
ID : 2
Format : AC-3
Format/Info : Audio Coding 3
Mode extension : CM (complete main)
Codec ID : 2000
Duration : 21mn 46s
Bit rate mode : Constant
Bit rate : 384 Kbps
Channel(s) : 6 channels
Channel positions : Front: L C R, Side: L R, LFE
Sampling rate : 48.0 KHz
Bit depth : 16 bits
Compression mode : Lossy
Stream size : 59.8 MiB (22%)
Alignment : Split accross interleaves
Interleave, duration : 42 ms (1.00 video frame)
Interleave, preload duration : 500 ms
"Криволапый ювелир"
Убрана вся реклама <img class="smile" src="//static.t-ru.org/smiles/icon_smile.gif" alt="">
Гриффины

9 Сезон
WEB-DLRip

AVC / MKV - ...3194108

Американский папа!

4 Сезон
HDTVRip

ASP / AVI - ...2227159
AVC / MKV - ...2227827

5 Сезон
WEB-DLRip

AVC / MKV - ...3205740

6 Сезон
HDTVRip

AVC / MKV - ...3190849


Трекер:  [ 09-Июн-2017 23:54 ]

  

Скачать .torrent

Размер .torrent файла 15 KB


Размер: 5.35 GB
Хэш (hash) релиза: 4b4825445344f025508012ea9b7c0e41c1ca78c4
Подписка на обновления:

Торренты, похожие на Гриффины Family Guy скачать торрент

Форум Название Автор Размер S L Добавлен
Мультсериалы ·· Гриффины / Family Guy / Сезон: 8 / Серии: 1-19 (21) (Seth MacFarlane / Сет Макфарлейн) [2009, Мультсериал, комедия, пародия, WEB-DLRip-AVC] MVO - FiLiZa Studio Galfimbul 52356031964.88 GB 0 0 1497051739

02:42

10-Июн-17

Еще никто не оставлял запись к записи скачать торрент Гриффины Family Guy . Будь первым!

!Обратная связь