Скачать через торрент Гриффины Family Guy Фильм бесплатно в хорошем качестве torrent

Скачивайте на UnionPeer.org фильмы через торрент без регистрации. Новинки кино в хорошем качестве через торрент. На UnionPeer.org можно скачать через торрент фильмы 2014 и 2015 годов. Самые новые фильмы.

Скачать торрент Гриффины Family Guy бесплатно через .torrent фильм мультфильм сериал

Статистика раздачи
Размер:  4.32 GB   |    Зарегистрирован:  1 год 5 месяцев   |    .torrent скачан:  20 раз   |   
Раздают:  1  
   
загрузка...
 
Автор Сообщение

Galfimbul

avatar Galfimbul


Гриффины / Family Guy

Страна: США
Жанр: Мультсериал, комедия, пародия, мюзикл
Продолжительность: 00:21:00
Год выпуска: 1999-2000
Перевод: Профессиональный (многоголосый закадровый)
Русские субтитры: нет

Режиссёр: Сет Макфарлейн / Seth MacFarlane
Роли озвучивали: Питер Гриффин, Лоис Гриффин, Мэгги Гриффин, Крис Гриффин, Стюи Гриффин, Брайан Гриффин и др.

Описание: Комедийный мультфильм - сериал «Гриффины» (В оригинале — "Family Guy" - человек семейный) представляют истории из повседневной жизни семейства Гриффинов — типичных жителей Новой Англии, исполненные неожиданных, а порой и парадоксальных, поворотов и подаваемые под совершенно необычным углом зрения, каковой способна обеспечить только анимация. Глава семейства, Питер, готов из кожи вон лезть, дабы обеспечить своих близких всем необходимым. Однако, по ходу осуществления задуманного, часто попадает впросак.
Его жена, Лоис, пытается всеми силами и в любых ситуациях «сохранять лицо», но тоже не всегда в этом преуспевает. Старшие дети Гриффинов, Мэгги и Крис, не упускают возможности при всяком удобном и неудобном случае все в доме поставить с ног на голову. Младший отпрыск семейства, дьявольски одаренный от природы Стюи, все свои таланты растрачивает на то, чтобы сжить со света всех родственников и, в конечном итоге, ни много-ни мало, стать властелином мира. И, наконец, есть еще Брайан, который, как не редко выясняется, является самым умным из обитателей дома, в котором проживает семейство. То, что он является домашним псом Гриффинов, никак не влияет на ситуацию.
Уже на протяжении трех лет сериал гриффины идет с огромным успехом в США, на сети Фокс. По своим рейтинговым показателям и завоеванной у аудитории популярности он ничем не уступает всемирно известным фоксовским хитам в этом жанре сериалу "Футурама" и "Симпсонам".
С не меньшим восторгом его всегда принимает и критика.

Ссылка на предыдущие и альтернативные раздачи
Сэмпл: Скачать
Сравнение с DVDRip
Картинка лучше: с деинтерлейсом справились лучше, меньше артефактов. Рипы от CtrlSD.

Качество: DVDRip-AVC
Формат: MKV
Видео: AVC; 712x480 (4:3); 917 Kbps; 23,976 fps; 0,112 bpp
Аудио 1: Russian; AC3; 192 Kbps; CBR; 2 ch; 16 bit
Аудио 2: English; AC3; 192 Kbps; CBR; 2 ch; 16 bit
Субтитры: отсутствуют
01 Peter, Peter, Caviar Eater
02 Holy Crap
03 DaBoom
04 Brian in Love
05 Love Thy Trophy
06 Death Is a Bitch
07 The King Is Dead
08 I Am Peter, Hear Me Roar
09 If I'm Dyin' I'm Lyin'
10 Running Mates
11 A Picture Is Worth 1,000 Bucks
12 Fifteen Minutes of Shame
13 Road to Rhode Island
14 Let's Go to the Hop
15 Dammit Janet
16 There's Something About Paulie
17 He's Too Sexy for His Fat
18 E. Peterbus Unum
19 The Story on Page One
20 Wasted Talent
21 Fore, Father
Общее
Уникальный идентификатор         : 237488960374420432984934648823812693176 (0xB2AAB5C42CE6CF7AA70394C167779CB8)
Формат                           : Matroska
Размер файла                     : 211 Мбайт
Продолжительность                : 22 м.
Общий поток                      : 1302 Кбит/сек
Дата кодирования                 : UTC 2012-03-04 14:12:08
Программа кодирования            : mkvmerge v5.3.0 ('I could have danced') built on Feb  9 2012 10:38:07
Библиотека кодирования           : libebml v1.2.3 + libmatroska v1.3.0

Видео
Идентификатор                    : 1
Формат                           : AVC
Формат/Информация                : Advanced Video Codec
Профиль формата                  : High@L4.0
Параметр CABAC формата           : Да
Параметр ReFrames формата        : 16 кадры
Идентификатор кодека             : V_MPEG4/ISO/AVC
Продолжительность                : 22 м.
Битрейт                          : 917 Кбит/сек
Ширина                           : 712 пикс.
Высота                           : 480 пикс.
Соотношение сторон               : 4:3
Частота кадров                   : 23,976 кадр/сек
Цветовое пространство            : YUV
Подвыборка цветности             : 4:2:0
Битовая глубина                  : 8 бит
Тип развёртки                    : Прогрессивная
Бит/(Пиксели*Кадры)              : 0.112
Размер потока                    : 144 Мбайт (69%)
Заголовок                        : DVDRip.by.CtrlSD
Библиотека кодирования           : x264 core 67 r1139M 1024283
Настройки программы              : cabac=1 / ref=16 / deblock=1:1:1 / analyse=0x3:0x133 / me=tesa / subme=9 / psy_rd=0.6:0.0 / mixed_ref=1 / me_range=32 / chroma_me=1 / trellis=2 / 8x8dct=1 / cqm=0 / deadzone=21,11 / chroma_qp_offset=-2 / threads=12 / nr=0 / decimate=0 / mbaff=0 / bframes=16 / b_pyramid=1 / b_adapt=1 / b_bias=0 / direct=3 / wpredb=0 / keyint=250 / keyint_min=25 / scenecut=40 / rc=2pass / bitrate=917 / ratetol=1.0 / qcomp=0.60 / qpmin=10 / qpmax=51 / qpstep=4 / cplxblur=20.0 / qblur=0.5 / ip_ratio=1.40 / pb_ratio=1.30 / aq=0
Язык                             : English

Аудио #1
Идентификатор                    : 2
Формат                           : AC-3
Формат/Информация                : Audio Coding 3
Расширение режима                : CM (complete main)
Идентификатор кодека             : A_AC3
Продолжительность                : 22 м.
Вид битрейта                     : Постоянный
Битрейт                          : 192 Кбит/сек
Канал(ы)                         : 2 канала(ов)
Расположение каналов             : Front: L R
Частота                          : 48,0 КГц
Битовая глубина                  : 16 бит
Метод сжатия                     : С потерями
Размер потока                    : 31,1 Мбайт (15%)
Заголовок                        : MVO.Ren-tv
Язык                             : Russian

Аудио #2
Идентификатор                    : 3
Формат                           : AC-3
Формат/Информация                : Audio Coding 3
Профиль формата                  : Dolby Digital
Расширение режима                : CM (complete main)
Идентификатор кодека             : A_AC3
Продолжительность                : 22 м.
Вид битрейта                     : Постоянный
Битрейт                          : 192 Кбит/сек
Канал(ы)                         : 2 канала(ов)
Расположение каналов             : Front: L R
Частота                          : 48,0 КГц
Битовая глубина                  : 16 бит
Метод сжатия                     : С потерями
Размер потока                    : 31,1 Мбайт (15%)
Заголовок                        : Original
Язык                             : English


Трекер:  [ 09-Июн-2017 23:54 ]

  

Скачать .torrent

Размер .torrent файла 13 KB


Размер: 4.32 GB
Хэш (hash) релиза: 9f6debf9888b8ccb32e3dd101c9922a6edbee924
Подписка на обновления:

Еще никто не оставлял запись к записи скачать торрент Гриффины Family Guy . Будь первым!

!Обратная связь