Скачать через торрент Гриффины Family Guy Фильм бесплатно в хорошем качестве torrent

Скачивайте на UnionPeer.org фильмы через торрент без регистрации. Новинки кино в хорошем качестве через торрент. На UnionPeer.org можно скачать через торрент фильмы 2014 и 2015 годов. Самые новые фильмы.

Скачать торрент Гриффины Family Guy бесплатно через .torrent фильм мультфильм сериал

Статистика раздачи
Размер:  1.51 GB   |    Зарегистрирован:  1 год 5 месяцев   |    .torrent скачан:  10 раз   |   
Раздают:  1  
   
загрузка...
 
Автор Сообщение

Galfimbul

avatar Galfimbul


Гриффины / Family Guy
Год выхода в эфир: 2008 г.
Страна: США
Жанр: мультсериал, комедия
Продолжительность: ~ 00:22:00
Перевод: Профессиональный (многоголосый, закадровый)
Субтитры: есть (Русские / Английские)
Режиссер: Мэтт Гроунинг / Matt GroeningРоли озвучивали: Сет МакФарлейн, Алекс Борштейн, Сет Грин, Мила Кунис, Майк Генри и другие.Описание: "Гриффины" (Family Guy) - анимационное ТВ-Шоу, созданное Сетом МакФерлайном (Seth MacFarlane) для телеканала FOX. Как нетрудно догадаться, главными героями шоу является семейка Гриффинов: тупой, но полный сумашедших идей, составляющих львиную долю шуток сериала, отец семейства Питер; его любящя и терпеливая жена Лойс, всеми силами пытающаяся превратить Гриффинов в нормальную семью; их интеллектуально развитый не по годам, вынашивающий идею мирового господства младший сын Стьюи; дочь-ботаник, обречённая из-за этого на одиночество и непонимание как в школе так и дома, Мэг; и 13-ти летний отсталый в развитии лет на 10, сын Крис. Также полноценным членом семьи является пёс Брайн - склонный к меланхолии эстет, спокойно наблюдающий с бокалом вина в лапе над приключениями Питера и остальных членов семьи (и это при всём притом, что остальные собаки в сериале не являются очеловеченными). Все раздачи мультсериала Качество: DVDRip
Формат: AVI [сэмпл]
Видео кодек: XviD
Аудио кодек: MP3
Видео: 640*480 (1.33), 23.976 fps, XviD MPEG-4, ~1142 kbps, 0.16 bit/pixel
Аудио: 48 kHz, MPEG Layer 3, 2 ch, ~128 kbps avg |["]x["]|
Аудио: 48 kHz, MPEG Layer 3, 2 ch, ~128 kbps avg |Original|Звук взят из этой раздачи ...3816504Перевод и озвучание: Hedgehog Riders и студия Propeller Sound.
Роли озвучивали:
<div style="margin-left: 2em" class="post-ul">Юрий Маляров - Питер, Кливленд и другие.
Никита Прозоровский - Брайан, Стьюи, Куагмир и другие.
Людмила Гнилова - все женские и детские роли.</div>
<div style="margin-left: 2em" type="1">- 01 - Love Blactually
- 02 - I Dream of Jesus
- 03 - Road to germany
- 04 - Baby Not On Board
- 05 - The Man With Two Brians
- 06 - Tales of a Third Grade Nothing
- 07 - Oceans Three and a Half
</div>
General
Complete name                    : E:\Family Guy - Season 7 (2x2)\Family.Guy.s07e01.dvdrip.rus.2x2.eng.avi
Format                           : AVI
Format/Info                      : Audio Video Interleave
File size                        : 221 MiB
Duration                         : 21mn 51s
Overall bit rate                 : 1 413 Kbps
Writing application              : VirtualDubMod 1.5.10.2 (build 2540/release)
Writing library                  : VirtualDubMod build 2540/release

Video
ID                               : 0
Format                           : MPEG-4 Visual
Format profile                   : Advanced Simple@L5
Format settings, BVOP            : 2
Format settings, QPel            : No
Format settings, GMC             : No warppoints
Format settings, Matrix          : Default (MPEG)
Muxing mode                      : Packed bitstream
Codec ID                         : XVID
Codec ID/Hint                    : XviD
Duration                         : 21mn 51s
Bit rate                         : 1 143 Kbps
Width                            : 640 pixels
Height                           : 480 pixels
Display aspect ratio             : 4:3
Frame rate                       : 23.976 fps
Resolution                       : 8 bits
Colorimetry                      : 4:2:0
Scan type                        : Progressive
Bits/(Pixel*Frame)               : 0.155
Stream size                      : 179 MiB (81%)
Writing library                  : XviD 1.2.1 (UTC 2008-12-04)

Audio #1
ID                               : 1
Format                           : MPEG Audio
Format version                   : Version 1
Format profile                   : Layer 3
Codec ID                         : 55
Codec ID/Hint                    : MP3
Duration                         : 21mn 51s
Bit rate mode                    : Constant
Bit rate                         : 128 Kbps
Channel(s)                       : 2 channels
Sampling rate                    : 48.0 KHz
Stream size                      : 20.0 MiB (9%)
Alignment                        : Aligned on interleaves
Interleave, duration             : 42 ms (1.00 video frame)
Interleave, preload duration     : 504 ms
Writing library                  : LAME3.98r
Encoding settings                : -m s -V 4 -q 2 -lowpass 17 -b 128

Audio #2
ID                               : 2
Format                           : MPEG Audio
Format version                   : Version 1
Format profile                   : Layer 3
Codec ID                         : 55
Codec ID/Hint                    : MP3
Duration                         : 21mn 51s
Bit rate mode                    : Constant
Bit rate                         : 128 Kbps
Channel(s)                       : 2 channels
Sampling rate                    : 48.0 KHz
Stream size                      : 20.0 MiB (9%)
Alignment                        : Aligned on interleaves
Interleave, duration             : 42 ms (1.00 video frame)
Interleave, preload duration     : 504 ms
Writing library                  : LAME3.98r
Encoding settings                : -m s -V 4 -q 2 -lowpass 17 -b 128
Внимание! Раздача ведётся путём добавления новых серий; при каждом добавлении создётся новый торрент. Чтобы начать докачку новой серии, пользователям необходимо сделать следующее:
(1) остановить скачивание,
(2) удалить старый торрент у себя из клиента (старые серии удалять не надо),
(3) скачать новый торрент и запустить его у себя в клиенте вместо старого, при этом указать клиенту путь в старую папку куда и должно происходить скачивание новых серий.

Ваш клиент при этом должен произвести хеширование (проверку) старой папки (если не производит сам - помогите ему сделать это), и будет докачивать только те серии которых у вас ещё нет. Старые серии при этом не удаляются, а продолжают раздаваться!

Eсли вы уже удалили старые серии, то предотвратить повторную закачку старых серий можно, отжав галочку в соответсвующих местах при запуске нового торрента.


Трекер:  [ 09-Июн-2017 23:54 ]

  

Скачать .torrent

Размер .torrent файла 17 KB


Размер: 1.51 GB
Хэш (hash) релиза: 432996a05e14101fd4ce618dcb6f488c4ee0ff90
Подписка на обновления:

Еще никто не оставлял запись к записи скачать торрент Гриффины Family Guy . Будь первым!

!Обратная связь