Скачать через торрент Гибрид Scintilla Фильм бесплатно в хорошем качестве torrent

Скачивайте на UnionPeer.org фильмы через торрент без регистрации. Новинки кино в хорошем качестве через торрент. На UnionPeer.org можно скачать через торрент фильмы 2014 и 2015 годов. Самые новые фильмы.

Скачать торрент Гибрид Scintilla бесплатно через .torrent фильм мультфильм сериал

Статистика раздачи
Размер:  2.58 GB   |    Зарегистрирован:  3 года 8 месяцев   |    .torrent скачан:  161 раз   |   
Раздают:  1  
   
загрузка...
 
Автор Сообщение

Galfimbul

avatar Galfimbul


Scintilla / The Hybrid

Гибрид

Жанр: Фантастика
Режиссёр: Билли О`Брайэн
Год: 2014

В ролях: Джон Линч, Морьяна Алауи, Крэйг Конуэй, Антония Томас, Джумэйн Хантер, Бет Уинслет, Нед Деннехи, Перри Хэнсон, Эдвард Доглиани, Chris Ellis-Stanton



.. Элитная команда наемников - выбрана для проведения тайной операции в бывшей Советской республике. Сначала они должны сразиться со свирепыми вооруженными ополченцами, чтобы пробиться к спуску в подземный лабиринт, населенный страшными монстрами - плодом скрещивания ДНК человека из инопланетян...

Страна: Великобритания
Продолжительность: 01:34
Перевод: Любительский одноголосый ( Хихидок )
Контейнер: MKV
Кодек: MPEG-4
Качество: WEB-DL
Видео: 3262 kb/s, 1280x532
Звук: Russian: AC3, 192 kb/s (2 ch) / English: AC3, 384 kb/s (6 ch)
Субтитры: English

Уникальный идентификатор : 217011256454810182296150150634584833962 (0xA342D9035C88114893B8B7BB909A7FAA)
Полное имя : Гибрид Scintilla The Hybrid (2014) WEB-DL 720pHybrid.2014.720p.WEB-DL.mkv
Формат : Matroska
Версия формата : Version 4 / Version 2
Размер файла : 2,58 Гбайт
Продолжительность : 1 ч. 34 м.
Общий поток : 3916 Кбит/сек
Дата кодирования : UTC 2015-03-02 13:55:38
Программа кодирования : mkvmerge v7.2.0 ('On Every Street') 32bit built on Sep 13 2014 15:42:11
Библиотека кодирования : libebml v1.3.0 + libmatroska v1.4.1

Видео
Идентификатор : 1
Формат : MPEG-4 Visual
Профиль формата : Simple@L5
Параметр BVOP формата : Нет
Параметр QPel формата : Нет
Параметр GMC формата : Без точки перехода
Параметр матрицы формата : Default (H.263)
Идентификатор кодека : V_MS/VFW/FOURCC / XVID
Идентификатор кодека/Подсказка : XviD
Битрейт : 3262 Кбит/сек
Ширина : 1280 пикселей
Высота : 532 пикселя
Соотношение сторон : 2,40:1
Режим частоты кадров : Переменный
Цветовое пространство : YUV
Субдискретизация насыщенности : 4:2:0
Битовая глубина : 8 бит
Тип развёртки : Прогрессивная
Метод сжатия : С потерями
Библиотека кодирования : Lavc56.20.100
Default : Да
Forced : Нет

Аудио #1
Идентификатор : 2
Формат : AC-3
Формат/Информация : Audio Coding 3
Расширение режима : CM (complete main)
Параметр Endianness формата : Big
Идентификатор кодека : A_AC3
Продолжительность : 1 ч. 34 м.
Вид битрейта : Постоянный
Битрейт : 192 Кбит/сек
Каналы : 2 канала
Расположение каналов : Front: L R
Частота : 44,1 КГц
Битовая глубина : 16 бит
Метод сжатия : С потерями
Размер потока : 129 Мбайт (5%)
Default : Да
Forced : Нет

Аудио #2
Идентификатор : 3
Формат : AC-3
Формат/Информация : Audio Coding 3
Расширение режима : CM (complete main)
Параметр Endianness формата : Big
Идентификатор кодека : A_AC3
Продолжительность : 1 ч. 34 м.
Вид битрейта : Постоянный
Битрейт : 384 Кбит/сек
Каналы : 6 каналов
Расположение каналов : Front: L C R, Side: L R, LFE
Частота : 48,0 КГц
Битовая глубина : 16 бит
Метод сжатия : С потерями
Размер потока : 259 Мбайт (10%)
Default : Нет
Forced : Нет

Текст
Идентификатор : 4
Формат : UTF-8
Идентификатор кодека : S_TEXT/UTF8
Идентификатор кодека/Информация : UTF-8 Plain Text
Default : Да
Forced : Нет





Трекер:  [ 02-Мар-2015 23:30 ]

  

Скачать .torrent

Размер .torrent файла 13 KB


Размер: 2.58 GB
Хэш (hash) релиза: ce49a8cb91ff85c9a3ecd41292c18bf5ea3af500
Подписка на обновления:

Еще никто не оставлял запись к записи скачать торрент Гибрид Scintilla . Будь первым!

!Обратная связь